<?xml version="1.0" standalone="no"?>
  <!DOCTYPE svg PUBLIC "-//W3C//DTD SVG 1.1//EN" "http://www.w3.org/Graphics/SVG/1.1/DTD/svg11.dtd" >
  <svg>
  <metadata>
  Created by font-carrier
  </metadata>
  <defs>
  <font id="Benzin-Bold" horiz-adv-x="2066" vert-adv-y="2066" >
    <font-face
      
      font-family="Benzin-Bold"
      
      font-weight="400"
      
      font-stretch="normal"
      
      units-per-em="1000"
      
      ascent="770"
      
      descent="-230"
      
    />
      <missing-glyph />

      

      
      <glyph glyph-name="uni21" unicode="&#x21;" d="M104 230L36 740L294 740L226 230L104 230M57 185L57 0L273 0L273 185L57 185Z"  horiz-adv-x="330" vert-adv-y="1000"  />

      
      <glyph glyph-name="uni22" unicode="&#x22;" d="M35 740L85 410L204 410L254 740L35 740M302 740L352 410L471 410L521 740L302 740Z"  horiz-adv-x="556" vert-adv-y="1000"  />

      
      <glyph glyph-name="uni23" unicode="&#x23;" d="M781 535L749 423L633 423L599 302L717 302L684 190L567 190L514 0L370 0L423 190L276 190L223 0L79 0L132 190L14 190L46 302L164 302L198 423L79 423L111 535L229 535L287 740L431 740L373 535L520 535L578 740L722 740L664 535L781 535M308 302L455 302L489 423L342 423L308 302Z"  horiz-adv-x="817" vert-adv-y="1000"  />

      
      <glyph glyph-name="uni24" unicode="&#x24;" d="M537 440L578 440Q678 440 752.50 426.50Q827 413 877 369.50Q927 326 927 241Q927 101 811.50 43.50Q696-14 537-22L537-136L418-136L418-21Q259-12 140 46.50Q21 105 21 244L276 245Q276 154 418 141L418 302Q303 301 220.50 313Q138 325 79.50 371Q21 417 21 511Q21 746 418 761L418 875L537 875L537 761Q694 753 810.50 695Q927 637 927 495L676 495Q676 539 634.50 561.50Q593 584 537 592L537 440M275 514Q275 452 418 441L418 594Q360 588 317.50 569.50Q275 551 275 514M677 238Q677 294 537 300L537 142Q599 149 638 172Q677 195 677 237L677 238Z"  horiz-adv-x="956" vert-adv-y="1000"  />

      
      <glyph glyph-name="uni25" unicode="&#x25;" d="M210 0L20 0L670 700L860 700L210 0M244 376Q201 376 164 397.50Q127 419 105.50 456Q84 493 84 536Q84 579 105.50 616Q127 653 164 674.50Q201 696 244 696Q287 696 324 674.50Q361 653 382.50 616Q404 579 404 536Q404 493 382.50 456Q361 419 324 397.50Q287 376 244 376M244 478Q268 478 284.50 495Q301 512 301 536Q301 560 284.50 577Q268 594 244 594Q220 594 203.50 577Q187 560 187 536Q187 512 203.50 495Q220 478 244 478M636 6Q593 6 556 27.50Q519 49 497.50 86Q476 123 476 166Q476 209 497.50 246Q519 283 556 304.50Q593 326 636 326Q679 326 716 304.50Q753 283 774.50 246Q796 209 796 166Q796 123 774.50 86Q753 49 716 27.50Q679 6 636 6M636 109Q659 109 676 126Q693 143 693 166Q693 190 676 206.50Q659 223 636 223Q613 223 596 206Q579 189 579 166Q579 143 596 126Q613 109 636 109Z"  horiz-adv-x="860" vert-adv-y="1000"  />

      
      <glyph glyph-name="uni26" unicode="&#x26;" d="M1026 0L774 0L728 34Q667 12 601 1Q535-10 473-10Q280-10 142.50 41Q5 92 5 214Q5 285 67 323.50Q129 362 243 390Q235 396 194 427Q153 458 131.50 491Q110 524 110 557Q110 629 164 674.50Q218 720 299.50 740Q381 760 468 760Q573 760 647 732Q721 704 758 660Q795 616 795 568Q795 516 758 478.50Q721 441 665 416Q609 391 526 366L763 192Q833 262 833 371L987 371Q987 213 870 114L1026 0M341 565Q341 506 430 436Q499 458 537 488Q575 518 575 566Q575 605 546.50 631Q518 657 459 657Q405 657 373 632.50Q341 608 341 565M473 97Q548 97 617 115L354 308Q310 288 286.50 266Q263 244 263 214Q263 185 290.50 158Q318 131 366 114Q414 97 473 97Z"  horiz-adv-x="1027" vert-adv-y="1000"  />

      
      <glyph glyph-name="uni27" unicode="&#x27;" d="M35 740L85 410L204 410L254 740L35 740Z"  horiz-adv-x="289" vert-adv-y="1000"  />

      
      <glyph glyph-name="uni28" unicode="&#x28;" d="M223-130Q118 18 66.50 145.50Q15 273 15 395Q15 515 66 640.50Q117 766 223 910L363 910Q300 770 270 646.50Q240 523 240 402Q240 280 270.50 151Q301 22 363-130L223-130Z"  horiz-adv-x="333" vert-adv-y="1000"  />

      
      <glyph glyph-name="uni29" unicode="&#x29;" d="M-35-130Q27 22 57.50 151Q88 280 88 402Q88 523 58 646.50Q28 770-35 910L105 910Q211 766 262 640.50Q313 515 313 395Q313 273 261.50 145.50Q210 18 105-130L-35-130Z"  horiz-adv-x="328" vert-adv-y="1000"  />

      
      <glyph glyph-name="uni2a" unicode="&#x2a;" d="M300 565L403 522L353 434L261 507L277 390L177 390L192 504L101 433L51 521L162 564L50 609L100 696L192 628L177 740L277 740L262 625L352 697L402 611L300 565Z"  horiz-adv-x="453" vert-adv-y="1000"  />

      
      <glyph glyph-name="uni2b" unicode="&#x2b;" d="M296 381L462 381L462 266L296 266L296 100L181 100L181 266L15 266L15 381L181 381L181 547L296 547L296 381Z"  horiz-adv-x="477" vert-adv-y="1000"  />

      
      <glyph glyph-name="uni2c" unicode="&#x2c;" d="M25 0L25 185L242 185L242 0L148-113L28-113L122 0L25 0Z"  horiz-adv-x="267" vert-adv-y="1000"  />

      
      <glyph glyph-name="uni2d" unicode="&#x2d;" d="M33 221L33 358L382 358L382 221L33 221Z"  horiz-adv-x="415" vert-adv-y="1000"  />

      
      <glyph glyph-name="uni2e" unicode="&#x2e;" d="M25 185L25 0L242 0L242 185L25 185Z"  horiz-adv-x="267" vert-adv-y="1000"  />

      
      <glyph glyph-name="uni2f" unicode="&#x2f;" d="M-40-117L364 840L582 840L178-117L-40-117Z"  horiz-adv-x="552" vert-adv-y="1000"  />

      
      <glyph glyph-name="uni30" unicode="&#x30;" d="M496 750Q960 752 960 373Q960 225 866.50 105.50Q773-14 496-14Q301-14 194 51Q87 116 51.50 203Q16 290 19 373Q19 517 118 633.50Q217 750 496 750M497 167Q584 167 638.50 196.50Q693 226 716 272.50Q739 319 737 374Q739 426 716 470Q693 514 638.50 542Q584 570 497 570Q411 570 357 542Q303 514 280 470Q257 426 259 374Q257 319 280 272.50Q303 226 357 196.50Q411 167 497 167Z"  horiz-adv-x="979" vert-adv-y="1000"  />

      
      <glyph glyph-name="uni31" unicode="&#x31;" d="M425 740L425 0L193 0L193 480L26 480L26 614Q125 614 173.50 637Q222 660 233 686.50Q244 713 244 740L425 740Z"  horiz-adv-x="466" vert-adv-y="1000"  />

      
      <glyph glyph-name="uni32" unicode="&#x32;" d="M954 178L954 0L25 0L25 95Q25 223 85 291.50Q145 360 218.50 383.50Q292 407 399 424Q441 431 491 436Q557 444 594.50 451Q632 458 657 473.50Q682 489 682 515Q682 559 621 579.50Q560 600 473 600Q390 599 332 573.50Q274 548 274 495L25 495Q25 649 164 705.50Q303 762 473 762Q654 762 794.50 714Q935 666 935 513Q935 433 882 385.50Q829 338 762.50 318Q696 298 614 284L582 278Q577 278 550 273Q417 254 330.50 232.50Q244 211 244 178L954 178Z"  horiz-adv-x="976" vert-adv-y="1000"  />

      
      <glyph glyph-name="uni33" unicode="&#x33;" d="M944 245Q943 106 818 42Q693-22 492-22Q265-22 145 55.50Q25 133 25 289L259 289Q259 212 327 176.50Q395 141 492 142Q577 140 636.50 165Q696 190 697 245Q696 273 682 287.50Q668 302 636 307.50Q604 313 546 313L361 313L361 457L546 457Q625 457 659 477Q693 497 693 526Q693 563 634.50 580.50Q576 598 492 599Q395 599 327 578.50Q259 558 259 515L25 515Q25 659 170.50 710.50Q316 762 492 762Q599 762 691.50 748.50Q784 735 854 686Q924 637 924 541Q924 443 804 407Q934 368 944 247L944 245L944 245Z"  horiz-adv-x="974" vert-adv-y="1000"  />

      
      <glyph glyph-name="uni34" unicode="&#x34;" d="M784 290L889 290L889 112L784 112L784 0L552 0L552 112L26 112L26 290L552 740L784 740L784 290M552 540L267 290L552 290L552 540Z"  horiz-adv-x="915" vert-adv-y="1000"  />

      
      <glyph glyph-name="uni35" unicode="&#x35;" d="M916 259L660 264L916 259M916 258L916 258Q913 149 837 86.50Q761 24 659.50 1.50Q558-21 460-21Q370-21 274 4Q178 29 109.50 89Q41 149 41 246L273 246Q273 195 327 169.50Q381 144 458 141Q542 137 601 166Q660 195 660 263Q660 331 612 366Q564 401 458 401Q378 401 324.50 373.50Q271 346 271 296L271 294L44 293L44 740L881 740L881 590L271 590L271 458Q326 494 403.50 509Q481 524 567 524Q669 524 748 492.50Q827 461 871.50 401Q916 341 916 259L916 258Z"  horiz-adv-x="937" vert-adv-y="1000"  />

      
      <glyph glyph-name="uni36" unicode="&#x36;" d="M960 245L960 245Q960 155 900.50 95Q841 35 740.50 6.50Q640-22 514-22Q290-22 168 52.50Q46 127 24 289Q23 305 23 335Q23 575 167 665.50Q311 756 514 756Q710 756 825 694.50Q940 633 940 499L717 499Q717 552 658.50 575.50Q600 599 515 596Q420 597 348 555Q276 513 262 421Q327 459 415 469.50Q503 480 608 480Q713 480 792 452.50Q871 425 915.50 372.50Q960 320 960 247L960 246L960 245M515 143Q604 142 666 166.50Q728 191 728 246Q728 313 667.50 336Q607 359 489 359Q269 359 272 273L271 273Q271 213 316.50 184.50Q362 156 409.50 150Q457 144 515 143Z"  horiz-adv-x="982" vert-adv-y="1000"  />

      
      <glyph glyph-name="uni37" unicode="&#x37;" d="M808 740L408 0L170 0L477 568L16 568L16 740L808 740Z"  horiz-adv-x="804" vert-adv-y="1000"  />

      
      <glyph glyph-name="uni38" unicode="&#x38;" d="M843 412Q948 359 948 238Q948 87 810.50 30.50Q673-26 503-26Q319-26 174 24.50Q29 75 29 238Q28 363 130 416Q57 457 57 545Q57 682 189 722Q321 762 481 762Q648 762 784 722Q920 682 920 546Q920 454 843 412M481 620Q399 621 342 603Q285 585 285 545Q285 506 342.50 488.50Q400 471 482 473Q568 471 628 488.50Q688 506 688 545Q688 585 628 603Q568 621 481 620M482 137Q584 136 654.50 160.50Q725 185 725 239Q725 294 654.50 318.50Q584 343 482 342Q384 343 315.50 318.50Q247 294 247 239Q247 185 315.50 160.50Q384 136 482 137Z"  horiz-adv-x="977" vert-adv-y="1000"  />

      
      <glyph glyph-name="uni39" unicode="&#x39;" d="M957 449Q958 433 958 403Q958 163 814 72.50Q670-18 467-18Q271-18 156 43.50Q41 105 41 239L264 239Q264 186 322.50 162.50Q381 139 466 142Q561 141 633 183Q705 225 719 317Q654 279 566 268.50Q478 258 373 258Q268 258 189 285.50Q110 313 65.50 365.50Q21 418 21 491L21 492L21 493Q21 583 80.50 643Q140 703 240.50 731.50Q341 760 467 760Q691 760 813 685.50Q935 611 957 449M492 379Q712 379 709 465L710 465Q710 525 664.50 553.50Q619 582 571.50 588Q524 594 466 595Q377 596 315 571.50Q253 547 253 492Q253 425 313.50 402Q374 379 492 379Z"  horiz-adv-x="980" vert-adv-y="1000"  />

      
      <glyph glyph-name="uni3a" unicode="&#x3a;" d="M29 505L29 320L245 320L245 505L29 505M29 185L29 0L245 0L245 185L29 185Z"  horiz-adv-x="274" vert-adv-y="1000"  />

      
      <glyph glyph-name="uni3b" unicode="&#x3b;" d="M29 320L29 505L246 505L246 320L29 320M126 0L29 0L29 185L246 185L246 0L152-113L32-113L126 0Z"  horiz-adv-x="274" vert-adv-y="1000"  />

      
      <glyph glyph-name="uni3c" unicode="&#x3c;" d="M15 431L580 588L580 447L190 356L580 265L580 124L15 280L15 431Z"  horiz-adv-x="595" vert-adv-y="1000"  />

      
      <glyph glyph-name="uni3d" unicode="&#x3d;" d="M502 433L502 317L15 317L15 433L502 433M502 256L502 141L15 141L15 256L502 256Z"  horiz-adv-x="517" vert-adv-y="1000"  />

      
      <glyph glyph-name="uni3e" unicode="&#x3e;" d="M15 447L15 588L580 431L580 280L15 124L15 265L405 356L15 447Z"  horiz-adv-x="595" vert-adv-y="1000"  />

      
      <glyph glyph-name="uni3f" unicode="&#x3f;" d="M419 762Q520 762 610 746.50Q700 731 770.50 675.50Q841 620 841 511Q841 419 791 375.50Q741 332 685 323Q629 314 573 315Q508 314 489.50 290Q471 266 471 229L260 229Q260 316 293 371.50Q326 427 422 430Q482 430 550 447.50Q618 465 618 514Q618 557 560 576.50Q502 596 419 595Q340 593 285.50 569Q231 545 231 495L11 495Q11 653 136.50 707.50Q262 762 419 762M261 0L260 185L473 185L474 0L261 0Z"  horiz-adv-x="853" vert-adv-y="1000"  />

      
      <glyph glyph-name="uni40" unicode="&#x40;" d="M714 825Q844 825 943 778Q1042 731 1096 648Q1150 565 1150 460Q1150 402 1132 339Q1106 250 1056 192.50Q1006 135 945 109Q884 83 821 83Q767 83 723 100.50Q679 118 657 148Q621 119 581.50 103Q542 87 503 87Q445 87 400.50 110.50Q356 134 331.50 176Q307 218 307 271Q307 306 317 339Q337 407 388 465Q439 523 508 557Q577 591 647 591Q701 591 737 563L745 590L895 590L826 350Q813 304 813 276Q813 242 828.50 230Q844 218 870 218L876 218Q916 218 943.50 245.50Q971 273 990 339Q1008 402 1008 454Q1008 578 916 641Q824 704 676 704Q566 704 463.50 653.50Q361 603 287 519Q213 435 186 339Q172 293 172 241Q172 165 206.50 103.50Q241 42 307.50 6.50Q374-29 466-29Q529-29 586.50-13Q644 3 706 32L779-60Q704-100 611.50-126Q519-152 434-152Q309-152 216.50-106Q124-60 74.50 21.50Q25 103 25 207Q25 268 45 339Q84 473 184.50 584.50Q285 696 424.50 760.50Q564 825 714 825M536 204Q587 204 623 243.50Q659 283 675 339Q685 376 685 399Q685 434 667 454Q649 474 614 474Q562 474 521 433.50Q480 393 465 339Q458 317 458 291Q458 253 477.50 228.50Q497 204 536 204Z"  horiz-adv-x="1174" vert-adv-y="1000"  />

      
      <glyph glyph-name="uni41" unicode="&#x41;" d="M1036 0L787 0L718 127L299 127L230 0L-19 0L382 740L635 740L1036 0M509 514L389 294L628 294L509 514Z"  horiz-adv-x="1017" vert-adv-y="1000"  />

      
      <glyph glyph-name="uni42" unicode="&#x42;" d="M820 388Q904 371 947 329.50Q990 288 990 211L990 207Q990 94 896.50 47.50Q803 1 628 0L626 0L587 0L41 0L41 740L674 740Q790 739 859 692Q928 645 928 559L928 555Q928 490 901 449Q874 408 820 388M558 450Q608 450 631.50 452.50Q655 455 671.50 470Q688 485 688 520Q688 552 672 566Q656 580 631 583.50Q606 587 558 587L557 587L272 587L272 451Q375 451 408 450L456 450L558 450M591 167Q647 167 675 170.50Q703 174 720 190.50Q737 207 737 243Q737 278 720 293.50Q703 309 675 312.50Q647 316 591 316L590 316L272 316L272 168Q413 168 472.50 167.50Q532 167 554 167L591 167Z"  horiz-adv-x="1012" vert-adv-y="1000"  />

      
      <glyph glyph-name="uni43" unicode="&#x43;" d="M21 369Q21 480 86.50 569Q152 658 265.50 708.50Q379 759 517 759Q641 759 741 719.50Q841 680 905 608.50Q969 537 990 441L734 441Q719 481 683.50 510.50Q648 540 604 555Q560 570 518 570Q459 570 403.50 546Q348 522 313.50 476.50Q279 431 279 369Q279 307 313 261.50Q347 216 401.50 192.50Q456 169 518 169Q587 169 645.50 202Q704 235 732 296L989 296Q967 201 903 129.50Q839 58 740 19Q641-20 517-20Q380-20 266.50 31Q153 82 87 171Q21 260 21 369Z"  horiz-adv-x="1011" vert-adv-y="1000"  />

      
      <glyph glyph-name="uni44" unicode="&#x44;" d="M887 369Q887 264 831.50 180Q776 96 674 48Q572 0 437 0L437-1L238-1L238 0L41 0L41 740L436 740Q571 740 673.50 692Q776 644 831.50 560Q887 476 887 369M442 198Q529 198 586.50 240.50Q644 283 644 369Q644 417 616 456.50Q588 496 541.50 518.50Q495 541 442 541L288 541L288 198L442 198Z"  horiz-adv-x="908" vert-adv-y="1000"  />

      
      <glyph glyph-name="uni45" unicode="&#x45;" d="M750 288L288 288L288 175L834 179L834 0L41 0L41 740L834 740L835 561L288 561L288 463L750 463L750 288Z"  horiz-adv-x="861" vert-adv-y="1000"  />

      
      <glyph glyph-name="uni46" unicode="&#x46;" d="M834 740L834 561L288 561L288 454L750 454L750 280L288 280L288 0L41 0L41 740L834 740Z"  horiz-adv-x="860" vert-adv-y="1000"  />

      
      <glyph glyph-name="uni47" unicode="&#x47;" d="M990 0L835 0L816 57Q690-20 516-20Q378-20 265 31Q152 82 86.50 171Q21 260 21 369Q21 480 87 569Q153 658 266 708.50Q379 759 516 759Q639 759 739 724Q839 689 904 621.50Q969 554 988 459L731 458Q711 516 651.50 543Q592 570 517 570Q455 570 404 545.50Q353 521 323.50 475.50Q294 430 294 369Q294 307 324 261.50Q354 216 405 192.50Q456 169 517 169Q578 169 631 192Q684 215 714 259L520 259L520 391L989 391L989 304L990 0Z"  horiz-adv-x="1012" vert-adv-y="1000"  />

      
      <glyph glyph-name="uni48" unicode="&#x48;" d="M288 477L683 477L683 740L929 740L929 0L683 0L683 283L288 283L288 0L41 0L41 740L288 740L288 477Z"  horiz-adv-x="970" vert-adv-y="1000"  />

      
      <glyph glyph-name="uni49" unicode="&#x49;" d="M288 0L41 0L41 740L288 740L288 0Z"  horiz-adv-x="329" vert-adv-y="1000"  />

      
      <glyph glyph-name="uni4a" unicode="&#x4a;" d="M780 740L780 295Q780 223 747.50 157Q715 91 629.50 45.50Q544 0 396 0Q256 0 172 56Q88 112 54.50 186Q21 260 21 321L253 321Q253 260 292 216Q331 172 407 172Q465 172 503 205.50Q541 239 541 295L541 740L780 740Z"  horiz-adv-x="821" vert-adv-y="1000"  />

      
      <glyph glyph-name="uni4b" unicode="&#x4b;" d="M488 401L891 0L588 0L288 310L288 0L41 0L41 740L288 740L288 483L570 740L876 740L488 401Z"  horiz-adv-x="872" vert-adv-y="1000"  />

      
      <glyph glyph-name="uni4c" unicode="&#x4c;" d="M288 740L288 190L754 190L754 0L41 0L41 740L288 740Z"  horiz-adv-x="780" vert-adv-y="1000"  />

      
      <glyph glyph-name="uni4d" unicode="&#x4d;" d="M1098 740L1098 0L852 0L852 334L689 0L462 0L288 338L288 0L41 0L41 740L323 740L575 231L823 740L1098 740Z"  horiz-adv-x="1140" vert-adv-y="1000"  />

      
      <glyph glyph-name="uni4e" unicode="&#x4e;" d="M288 0L41 0L41 740L288 0M986 0L740 0L986 0M740 287L740 740L986 740L986 0L740 0L288 453L288 0L41 0L41 740L288 740L740 287Z"  horiz-adv-x="1028" vert-adv-y="1000"  />

      
      <glyph glyph-name="uni4f" unicode="&#x4f;" d="M506 756Q643 756 753.50 705.50Q864 655 926.50 566.50Q989 478 989 367Q989 257 926.50 169Q864 81 754 30.50Q644-20 507-20Q375-20 263 30.50Q151 81 85.50 169.50Q20 258 20 367Q20 477 85.50 566Q151 655 262.50 705.50Q374 756 506 756M507 167Q563 167 614.50 191Q666 215 698 260Q730 305 730 367Q730 429 697.50 474.50Q665 520 613 543.50Q561 567 505 567Q448 567 397 543Q346 519 314.50 473.50Q283 428 283 367Q283 305 315 260Q347 215 398.50 191Q450 167 507 167Z"  horiz-adv-x="1009" vert-adv-y="1000"  />

      
      <glyph glyph-name="uni50" unicode="&#x50;" d="M600 740Q693 740 764.50 709Q836 678 875.50 622.50Q915 567 915 494L915 490Q915 370 833 304.50Q751 239 609 239L288 239L288 0L41 0L41 740L600 740M556 414Q608 414 633.50 417Q659 420 676 436Q693 452 693 489Q693 527 676 544Q659 561 632 565Q605 569 556 569L523 569Q503 569 453 568.50Q403 568 288 568L288 414L555 414L556 414Z"  horiz-adv-x="936" vert-adv-y="1000"  />

      
      <glyph glyph-name="uni51" unicode="&#x51;" d="M1006 367Q1006 282 967.50 209Q929 136 859 83Q789 30 697 4L842-143L458-143L458-17Q339-5 238.50 48Q138 101 79.50 184.50Q21 268 21 367Q21 477 90 566Q159 655 274.50 705.50Q390 756 523 756Q660 756 770.50 705.50Q881 655 943.50 566.50Q1006 478 1006 367M524 168Q581 168 632.50 192Q684 216 715.50 261Q747 306 747 367Q747 428 715.50 473.50Q684 519 632.50 543Q581 567 524 567Q468 567 412 543Q356 519 320 473.50Q284 428 284 367Q284 307 320 261.50Q356 216 412 192Q468 168 524 168Z"  horiz-adv-x="1027" vert-adv-y="1000"  />

      
      <glyph glyph-name="uni52" unicode="&#x52;" d="M635 1L430 240L277 240L277 1L41 1L41 741L600 741Q693 741 764.50 710Q836 679 875.50 623.50Q915 568 915 495L915 491Q915 396 859.50 334Q804 272 706 251L921 1L635 1M683 489Q683 528 666.50 546Q650 564 624 568Q598 572 548 572L512 572Q438 570 277 570L277 411L546 411L548 411Q598 411 624 415Q650 419 666.50 435.50Q683 452 683 489Z"  horiz-adv-x="941" vert-adv-y="1000"  />

      
      <glyph glyph-name="uni53" unicode="&#x53;" d="M583 440Q681 440 754.50 426.50Q828 413 877.50 369Q927 325 927 241Q927 86 789.50 31.50Q652-23 481-23Q311-23 166 32.50Q21 88 21 244L276 245Q276 176 338.50 157.50Q401 139 485 139Q564 139 620.50 162Q677 185 677 237L677 238Q677 267 642 281Q607 295 567 298Q527 301 471 302L396 302Q288 302 208.50 315.50Q129 329 75 375Q21 421 21 511Q21 667 161.50 714.50Q302 762 481 762Q649 762 788 707Q927 652 927 495L676 495Q676 545 619.50 569.50Q563 594 482 597Q395 597 335 577Q275 557 275 514Q275 469 336 454Q397 439 474 439L583 440Z"  horiz-adv-x="948" vert-adv-y="1000"  />

      
      <glyph glyph-name="uni54" unicode="&#x54;" d="M26 540L26 740L900 740L26 540M900 740L900 539L588 539L588 0L342 0L342 539L26 539L26 740L900 740Z"  horiz-adv-x="926" vert-adv-y="1000"  />

      
      <glyph glyph-name="uni55" unicode="&#x55;" d="M695 740L947 740L947 361Q947 253 887 166Q827 79 725 29.50Q623-20 502-20Q372-20 266 29Q160 78 98.50 164.50Q37 251 36 359L36 740L292 740L292 359Q292 268 354.50 225Q417 182 503 182Q548 182 592 199.50Q636 217 665.50 257Q695 297 695 359L695 740Z"  horiz-adv-x="983" vert-adv-y="1000"  />

      
      <glyph glyph-name="uni56" unicode="&#x56;" d="M403 0L808 740L403 0L403 0M531 234L808 740L1058 740L668 0L388 0L1 740L269 740L531 234Z"  horiz-adv-x="1059" vert-adv-y="1000"  />

      
      <glyph glyph-name="uni57" unicode="&#x57;" d="M1053 288L1291 740L1541 740L1152 0L902 0L771 404L638 0L388 0L1 740L254 740L489 288L647 740L899 740L1053 288Z"  horiz-adv-x="1543" vert-adv-y="1000"  />

      
      <glyph glyph-name="uni58" unicode="&#x58;" d="M648 740L926 740L637 367L926 0L648 0L466 229L284 0L6 0L296 367L6 740L284 740L466 510L648 740Z"  horiz-adv-x="932" vert-adv-y="1000"  />

      
      <glyph glyph-name="uni59" unicode="&#x59;" d="M718 740L973 740L619 311L619 0L354 0L354 310L1 740L256 740L481 465L718 740Z"  horiz-adv-x="974" vert-adv-y="1000"  />

      
      <glyph glyph-name="uni5a" unicode="&#x5a;" d="M35 740L890 740L890 542L363 197L887 196L887 0L31 0L31 197L33 197L559 543L35 544L35 740Z"  horiz-adv-x="921" vert-adv-y="1000"  />

      
      <glyph glyph-name="uni5b" unicode="&#x5b;" d="M311 910L311 778L219 778L219 16L311 16L311-117L25-117L25 910L311 910Z"  horiz-adv-x="336" vert-adv-y="1000"  />

      
      <glyph glyph-name="uni5c" unicode="&#x5c;" d="M-30 840L188 840L592-117L374-117L-30 840Z"  horiz-adv-x="552" vert-adv-y="1000"  />

      
      <glyph glyph-name="uni5d" unicode="&#x5d;" d="M25 910L311 910L311-117L25-117L25 16L117 16L117 778L25 778L25 910Z"  horiz-adv-x="336" vert-adv-y="1000"  />

      
      <glyph glyph-name="uni5e" unicode="&#x5e;" d="M418 741L574 496L391 496L295 651L199 496L15 496L172 741L418 741Z"  horiz-adv-x="589" vert-adv-y="1000"  />

      
      <glyph glyph-name="uni5f" unicode="&#x5f;" d="M2-158L2-21L702-21L702-158L2-158Z"  horiz-adv-x="704" vert-adv-y="1000"  />

      
      <glyph glyph-name="uni60" unicode="&#x60;" d="M105 910L329 910L399 777L225 777L105 910Z"  horiz-adv-x="521" vert-adv-y="1000"  />

      
      <glyph glyph-name="uni61" unicode="&#x61;" d="M389 569Q532 569 646 521Q760 473 760 352L760 0L542 0L525 71L525 76Q500 31 419.50 10Q339-11 244-11Q168-11 92 22.50Q16 56 16 163Q16 332 237 332Q379 332 435 334.50Q491 337 509 344.50Q527 352 528 372L528 385Q527 418 484.50 433.50Q442 449 388 449Q332 448 292.50 428Q253 408 253 367L22 367Q22 443 82 488.50Q142 534 225.50 551.50Q309 569 389 569M374 135Q448 135 486 168Q524 201 527 252L527 266Q489 250 406 250Q320 250 285.50 238Q251 226 250 194Q253 164 281.50 149.50Q310 135 374 135Z"  horiz-adv-x="786" vert-adv-y="1000"  />

      
      <glyph glyph-name="uni62" unicode="&#x62;" d="M779 281L779 281Q778 199 744 132.50Q710 66 650.50 27.50Q591-11 514-11Q333-15 249 67L237 2L26 2L26 740L256 740L256 487Q341 565 514 565Q591 565 651 525.50Q711 486 744 422Q777 358 779 287L779 284L779 281M399 124Q471 124 509 168.50Q547 213 548 282Q547 342 508.50 385.50Q470 429 399 429Q335 429 295.50 387Q256 345 256 275L256 272Q256 233 274.50 199Q293 165 325.50 144.50Q358 124 399 124Z"  horiz-adv-x="791" vert-adv-y="1000"  />

      
      <glyph glyph-name="uni63" unicode="&#x63;" d="M11 269Q11 353 61 420.50Q111 488 198 526Q285 564 390 564Q490 564 566.50 533.50Q643 503 690 448Q737 393 752 321L522 321Q511 366 476 393Q441 420 391 420Q326 420 285 378.50Q244 337 244 269Q244 203 284 160.50Q324 118 389 118Q440 118 475 145Q510 172 521 216L751 216Q740 148 691 93Q642 38 563.50 6Q485-26 390-26Q286-26 199 12.50Q112 51 61.50 118.50Q11 186 11 269Z"  horiz-adv-x="764" vert-adv-y="1000"  />

      
      <glyph glyph-name="uni64" unicode="&#x64;" d="M538 740L768 740L768 2L558 2L546 67Q461-15 280-11Q203-11 143.50 27.50Q84 66 50 132.50Q16 199 15 281L15 284L15 287Q17 358 50 422Q83 486 143 525.50Q203 565 280 565Q453 565 538 487L538 740M396 124Q436 124 468.50 144.50Q501 165 519.50 199Q538 233 538 272L538 275Q538 345 498.50 387Q459 429 396 429Q325 429 286.50 385.50Q248 342 247 282Q248 213 286 168.50Q324 124 396 124Z"  horiz-adv-x="794" vert-adv-y="1000"  />

      
      <glyph glyph-name="uni65" unicode="&#x65;" d="M778 250L245 250Q252 187 292.50 146.50Q333 106 403 106Q460 106 504.50 133.50Q549 161 549 218L778 218Q778 102 678.50 41Q579-20 402-20Q293-20 204 17Q115 54 63 121.50Q11 189 11 276Q11 364 62.50 431.50Q114 499 203.50 535.50Q293 572 402 572Q514 572 598.50 536Q683 500 730 434.50Q777 369 778 281L778 276L780 276L778 276L778 250M402 450Q336 450 301 422Q266 394 253 344L543 344Q532 394 499 422Q466 450 402 450Z"  horiz-adv-x="791" vert-adv-y="1000"  />

      
      <glyph glyph-name="uni66" unicode="&#x66;" d="M472 481L472 324L359 324L359 0L129 0L129 324L21 324L21 481L129 481L129 553Q129 672 213 715Q297 758 402 758Q439 758 468 754L468 571Q418 571 396 565Q374 559 366.50 541.50Q359 524 359 485L359 481L472 481Z"  horiz-adv-x="493" vert-adv-y="1000"  />

      
      <glyph glyph-name="uni67" unicode="&#x67;" d="M765 545L765 0Q761-79 702.50-126.50Q644-174 564.50-193.50Q485-213 411-213Q301-213 229-205.50Q157-198 98.50-160Q40-122 40-39L274-39Q274-68 299.50-80.50Q325-93 344.50-94Q364-95 411-95Q456-95 495.50-72.50Q535-50 535 10L535 58Q452-18 278-18Q202-18 142 21.50Q82 61 47.50 125Q13 189 11 260L11 264L11 267Q12 349 46 415Q80 481 140.50 519Q201 557 278 557Q457 562 541 480L554 545L765 545M393 118Q457 118 496 158.50Q535 199 535 274L535 277Q535 315 517 349Q499 383 467 403Q435 423 396 423Q324 423 285 379.50Q246 336 244 266Q246 202 284.50 160Q323 118 393 118Z"  horiz-adv-x="794" vert-adv-y="1000"  />

      
      <glyph glyph-name="uni68" unicode="&#x68;" d="M486 563Q604 563 674.50 483Q745 403 745 225L745 0L515 0L515 222Q515 285 508 325Q501 365 474 392Q447 419 390 419Q330 419 301 391.50Q272 364 264 323.50Q256 283 256 223L256 0L26 0L26 740L256 740L256 479Q332 563 486 563Z"  horiz-adv-x="766" vert-adv-y="1000"  />

      
      <glyph glyph-name="uni69" unicode="&#x69;" d="M256 740L26 740L26 589L256 589L256 740M256 0L26 0L26 560L256 560L256 0Z"  horiz-adv-x="283" vert-adv-y="1000"  />

      
      <glyph glyph-name="uni6a" unicode="&#x6a;" d="M39 590L39 740L269 740L269 590L39 590M39 561L269 561L269-24Q269-140 185-182.50Q101-225-5-225Q-41-225-70-221L-70-41Q-22-41 1-34.50Q24-28 31.50-13Q39 2 39 32L39 561Z"  horiz-adv-x="299" vert-adv-y="1000"  />

      
      <glyph glyph-name="uni6b" unicode="&#x6b;" d="M478 301L751 0L488 0L254 252L254 0L24 0L24 740L254 740L254 348L453 545L720 545L478 301Z"  horiz-adv-x="741" vert-adv-y="1000"  />

      
      <glyph glyph-name="uni6c" unicode="&#x6c;" d="M256 0L26 0L26 740L256 740L256 0Z"  horiz-adv-x="286" vert-adv-y="1000"  />

      
      <glyph glyph-name="uni6d" unicode="&#x6d;" d="M948 563Q1029 563 1078.50 530Q1128 497 1152 423.50Q1176 350 1176 225L1176 0L946 0L946 222Q946 282 938.50 324Q931 366 905.50 393Q880 420 830 420Q781 420 756.50 393.50Q732 367 724.50 326.50Q717 286 717 225L717 0L487 0L487 222Q487 283 480 324.50Q473 366 448 393Q423 420 373 420Q320 420 295 393Q270 366 263.50 323.50Q257 281 257 210L257 0L26 0L26 545L232 545L249 480Q287 523 346.50 543Q406 563 490 563Q563 563 610 536Q657 509 683 448Q717 509 781 536Q845 563 948 563Z"  horiz-adv-x="1201" vert-adv-y="1000"  />

      
      <glyph glyph-name="uni6e" unicode="&#x6e;" d="M487 563Q610 563 677.50 484Q745 405 745 225L745 0L515 0L515 222Q515 285 508 325Q501 365 474 392Q447 419 390 419Q330 419 301 393.50Q272 368 264 328Q256 288 256 223L256 0L26 0L26 545L256 545L256 477Q332 563 487 563Z"  horiz-adv-x="766" vert-adv-y="1000"  />

      
      <glyph glyph-name="uni6f" unicode="&#x6f;" d="M406 568Q514 568 601 530Q688 492 737 424.50Q786 357 786 273Q786 190 736.50 122.50Q687 55 600.50 17Q514-21 406-21Q302-21 211 17.50Q120 56 65.50 123.50Q11 191 11 273Q11 356 65.50 423.50Q120 491 210.50 529.50Q301 568 406 568M406 122Q446 122 480.50 139Q515 156 536 190.50Q557 225 557 273Q557 321 536 355.50Q515 390 480.50 407Q446 424 406 424Q367 424 329.50 406.50Q292 389 268 355Q244 321 244 273Q244 225 268 191Q292 157 329.50 139.50Q367 122 406 122Z"  horiz-adv-x="797" vert-adv-y="1000"  />

      
      <glyph glyph-name="uni70" unicode="&#x70;" d="M779 260L779 260Q777 189 743.50 125Q710 61 650 21.50Q590-18 514-18Q341-18 256 60L256-190L26-190L26 545L237 545L250 475Q334 561 514 557Q591 557 650.50 519Q710 481 744 415Q778 349 779 267L779 264L779 260M399 118Q469 118 507.50 161.50Q546 205 548 265Q546 334 508.50 378.50Q471 423 399 423Q358 423 325.50 402.50Q293 382 274.50 347.50Q256 313 256 274L256 272Q256 202 295.50 160Q335 118 399 118Z"  horiz-adv-x="796" vert-adv-y="1000"  />

      
      <glyph glyph-name="uni71" unicode="&#x71;" d="M558 545L768 545L768-190L538-190L538 60Q453-18 280-18Q204-18 144 21.50Q84 61 50.50 125Q17 189 15 260L15 264L15 267Q16 349 50 415Q84 481 143.50 519Q203 557 280 557Q461 561 545 479L558 545M396 118Q459 118 498.50 160Q538 202 538 272L538 274Q538 313 519.50 347.50Q501 382 468.50 402.50Q436 423 396 423Q325 423 287 378.50Q249 334 247 265Q249 202 287 160Q325 118 396 118Z"  horiz-adv-x="792" vert-adv-y="1000"  />

      
      <glyph glyph-name="uni72" unicode="&#x72;" d="M254 450Q334 538 507 556L507 382L374 382Q312 382 284 335.50Q256 289 256 214L256 0L26 0L26 545L235 545L254 450Z"  horiz-adv-x="528" vert-adv-y="1000"  />

      
      <glyph glyph-name="uni73" unicode="&#x73;" d="M385 324Q414 324 429 325L486 326Q604 326 677.50 295.50Q751 265 751 174Q751 56 641.50 16.50Q532-23 391-23Q251-23 134.50 18.50Q18 60 18 178L250 178Q250 131 291 115.50Q332 100 391 100Q458 100 490.50 116.50Q523 133 523 170Q523 203 485 211.50Q447 220 389 220L354 220Q263 220 192.50 229.50Q122 239 70 275Q18 311 18 383Q18 497 130.50 532Q243 567 390 567Q529 567 640 526Q751 485 751 367L521 368Q521 419 469 431Q417 443 387 443Q341 443 295.50 432.50Q250 422 250 386Q250 326 385 324Z"  horiz-adv-x="762" vert-adv-y="1000"  />

      
      <glyph glyph-name="uni74" unicode="&#x74;" d="M360 545L464 545L464 388L360 388L360 0L130 0L130 388L21 388L21 545L130 545L130 663L360 756L360 545Z"  horiz-adv-x="486" vert-adv-y="1000"  />

      
      <glyph glyph-name="uni75" unicode="&#x75;" d="M515 545L745 545L745 0L515 0L515 68Q439-18 284-18Q161-18 93.50 61Q26 140 26 320L26 545L256 545L256 323Q256 260 263 220Q270 180 297 153Q324 126 381 126Q460 126 487.50 180.50Q515 235 515 323L515 545Z"  horiz-adv-x="771" vert-adv-y="1000"  />

      
      <glyph glyph-name="uni76" unicode="&#x76;" d="M416 197L573 545L821 545L543 0L288 0L11 545L259 545L416 197Z"  horiz-adv-x="832" vert-adv-y="1000"  />

      
      <glyph glyph-name="uni77" unicode="&#x77;" d="M781 210L927 545L1168 545L891 0L686 0L587 292L487 0L283 0L6 545L246 545L394 209L488 545L686 545L781 210Z"  horiz-adv-x="1175" vert-adv-y="1000"  />

      
      <glyph glyph-name="uni78" unicode="&#x78;" d="M563 545L824 545L578 270L824 0L563 0L408 169L252 0L-9 0L238 270L-9 545L252 545L408 375L563 545Z"  horiz-adv-x="816" vert-adv-y="1000"  />

      
      <glyph glyph-name="uni79" unicode="&#x79;" d="M868 545L532-123Q499-189 404.50-208Q310-227 192-227L192-44Q249-44 271-37Q293-30 293-17Q293-13 289-3L8 545L254 545L440 142L622 545L868 545Z"  horiz-adv-x="876" vert-adv-y="1000"  />

      
      <glyph glyph-name="uni7a" unicode="&#x7a;" d="M26 545L734 544L734 384L339 161L734 160L734 0L26 1L26 162L424 385L26 386L26 545Z"  horiz-adv-x="760" vert-adv-y="1000"  />

      
      <glyph glyph-name="uni7b" unicode="&#x7b;" d="M307 101Q307 60 322 40Q337 20 363 14Q389 8 434 8L435-123Q338-123 282-113.50Q226-104 183.50-57Q141-10 138 94L138 279Q137 329 107 344.50Q77 360 11 360L10 360L11 394L10 427L11 427Q56 427 82 432.50Q108 438 123 456Q138 474 138 510L138 694Q141 797 183.50 844Q226 891 282 900Q338 909 435 909L434 780Q389 780 363 774Q337 768 322 747.50Q307 727 307 686L307 503Q303 428 246 394Q303 360 307 284L307 101Z"  horiz-adv-x="460" vert-adv-y="1000"  />

      
      <glyph glyph-name="uni7c" unicode="&#x7c;" d="M247-185L20-185L20 798L247 798L247-185Z"  horiz-adv-x="267" vert-adv-y="1000"  />

      
      <glyph glyph-name="uni7d" unicode="&#x7d;" d="M450 360L449 360Q383 360 353 344.50Q323 329 322 279L322 94Q319-10 276.50-57Q234-104 178-113.50Q122-123 25-123L26 8Q71 8 97 14Q123 20 138 40Q153 60 153 101L153 284Q157 360 214 394Q157 428 153 503L153 686Q153 727 138 747.50Q123 768 97 774Q71 780 26 780L25 909Q122 909 178 900Q234 891 276.50 844Q319 797 322 694L322 510Q322 474 337 456Q352 438 378 432.50Q404 427 449 427L450 427L450 360Z"  horiz-adv-x="460" vert-adv-y="1000"  />

      
      <glyph glyph-name="uni7e" unicode="&#x7e;" d="M15 439Q69 482 124 482Q155 482 184 471Q213 460 252 439Q294 417 322 406.50Q350 396 380 396Q435 396 489 439L489 306Q436 264 383 264Q352 264 322.50 275.50Q293 287 254 309Q214 331 185 342Q156 353 126 353Q70 353 15 306L15 439Z"  horiz-adv-x="504" vert-adv-y="1000"  />

      
      <glyph glyph-name="unia1" unicode="&#xa1;" d="M273 545L57 545L57 360L273 360L273 545M294-190L36-190L104 315L226 315L294-190Z"  horiz-adv-x="330" vert-adv-y="1000"  />

      
      <glyph glyph-name="unia2" unicode="&#xa2;" d="M389 118Q440 118 475 145Q510 172 521 216L751 216Q741 154 698.50 102Q656 50 587.50 16.50Q519-17 435-24L435-96L322-96L322-21Q234-10 163 30.50Q92 71 51.50 133Q11 195 11 269Q11 344 51 405.50Q91 467 162 507.50Q233 548 322 560L322 631L435 631L435 562Q566 553 648 487.50Q730 422 752 321L522 321Q511 366 476 393Q441 420 391 420Q326 420 285 378.50Q244 337 244 269Q244 203 284 160.50Q324 118 389 118Z"  horiz-adv-x="751" vert-adv-y="1000"  />

      
      <glyph glyph-name="unia3" unicode="&#xa3;" d="M859 149L859 0L32 0L32 149Q101 224 114 270L15 270L14 407L64 407Q42 455 42 510Q42 591 101 650.50Q160 710 255 741Q350 772 455 772Q558 772 647.50 741.50Q737 711 792 649Q847 587 847 497L607 497Q607 541 583.50 573Q560 605 521.50 621.50Q483 638 440 638Q375 638 327.50 602Q280 566 280 501Q280 453 302 407L636 407L637 270L351 270Q343 221 282 149L859 149Z"  horiz-adv-x="874" vert-adv-y="1000"  />

      
      <glyph glyph-name="unia4" unicode="&#xa4;" d="M565 453Q565 380 526 321L587 260L515 188L454 249Q395 210 322 210Q249 210 190 249L127 188L55 260L118 322Q79 381 79 453Q79 526 118 585L55 648L128 720L191 657Q250 696 322 696Q393 696 453 658L515 719L587 647L526 586Q565 523 565 453M322 342Q369 342 401 374.50Q433 407 433 453Q433 499 400.50 531.50Q368 564 322 564Q276 564 243.50 531.50Q211 499 211 453Q211 407 243.50 374.50Q276 342 322 342Z"  horiz-adv-x="642" vert-adv-y="1000"  />

      
      <glyph glyph-name="unia5" unicode="&#xa5;" d="M718 740L973 740L676 380L810 380L810 265L619 265L619 228L810 228L810 113L619 113L619 0L354 0L354 113L168 113L168 228L354 228L354 265L168 265L168 380L297 380L1 740L256 740L481 465L718 740Z"  horiz-adv-x="986" vert-adv-y="1000"  />

      
      <glyph glyph-name="unia6" unicode="&#xa6;" d="M247 398L20 398L20 798L247 798L247 398M247-185L20-185L20 215L247 215L247-185Z"  horiz-adv-x="491" vert-adv-y="1000"  />

      
      <glyph glyph-name="unia7" unicode="&#xa7;" d="M797 387Q797 308 735 262Q797 224 797 148Q797 31 682-10Q567-51 423-51Q278-51 157.50-9.50Q37 32 37 150L270 150Q270 103 317 89Q364 75 423 75Q482 75 523.50 90.50Q565 106 565 145Q565 177 522 185.50Q479 194 411 194Q269 195 155.50 233.50Q42 272 37 381L37 385L37 390Q41 445 94 480Q37 519 37 592Q37 709 153.50 745Q270 781 423 781Q567 781 682 740Q797 699 797 581L566 581Q566 618 524.50 635.50Q483 653 423 653Q359 654 315 640Q271 626 271 595Q271 539 417 539L495 540Q627 540 712 510Q797 480 797 387M271 386Q274 344 316 331.50Q358 319 415 319Q483 319 524.50 331.50Q566 344 566 384Q566 414 518 425Q470 436 416 436L362 435Q325 432 299 420.50Q273 409 271 386Z"  horiz-adv-x="812" vert-adv-y="1000"  />

      
      <glyph glyph-name="unia8" unicode="&#xa8;" d="M213 783Q173 783 146 810.50Q119 838 119 878Q119 917 146 944Q173 971 213 971Q252 971 279.50 944Q307 917 307 878Q307 838 279.50 810.50Q252 783 213 783M479 783Q439 783 412 810.50Q385 838 385 878Q385 917 412 944Q439 971 479 971Q518 971 545.50 944Q573 917 573 878Q573 838 545.50 810.50Q518 783 479 783Z"  horiz-adv-x="692" vert-adv-y="1000"  />

      
      <glyph glyph-name="unia9" unicode="&#xa9;" d="M382-21Q279-21 192.50 29.50Q106 80 55.50 166.50Q5 253 5 356Q5 459 55.50 545.50Q106 632 192.50 682.50Q279 733 382 733Q484 733 570.50 682Q657 631 708 544.50Q759 458 759 356Q759 253 708.50 166.50Q658 80 571.50 29.50Q485-21 382-21M382 75Q458 75 522.50 113Q587 151 625 215.50Q663 280 663 356Q663 432 625.50 496.50Q588 561 523.50 599Q459 637 382 637Q306 637 241.50 599Q177 561 139 496.50Q101 432 101 356Q101 280 139 215.50Q177 151 241.50 113Q306 75 382 75M168 354Q168 402 197 440.50Q226 479 275.50 501Q325 523 385 523Q471 523 526 485Q581 447 594 384L464 384Q457 410 436 426Q415 442 386 442Q348 442 324 418Q300 394 300 354Q300 316 323 291Q346 266 384 266Q415 266 436 281.50Q457 297 463 323L593 323Q587 284 558.50 252.50Q530 221 485 202.50Q440 184 385 184Q326 184 276 206Q226 228 197 267Q168 306 168 354Z"  horiz-adv-x="764" vert-adv-y="1000"  />

      
      <glyph glyph-name="uniaa" unicode="&#xaa;" d="M257 545Q350 545 423 514Q496 483 496 405L496 178L356 178L344 223L344 226Q327 198 275 185Q223 172 162 172Q113 172 64.50 193Q16 214 16 283Q16 392 159 392Q250 392 285.50 393.50Q321 395 333 400Q345 405 346 418L346 426Q345 448 318 458Q291 468 256 468Q220 467 194.50 454Q169 441 169 415L20 415Q20 486 95 515.50Q170 545 257 545M247 265Q292 265 316.50 284Q341 303 345 333L345 349Q320 339 267 339Q211 339 189.50 331.50Q168 324 167 303Q169 284 187.50 274.50Q206 265 247 265Z"  horiz-adv-x="522" vert-adv-y="1000"  />

      
      <glyph glyph-name="uniab" unicode="&#xab;" d="M213 276L421 65L207 65L5 277L197 479L413 479L213 276M498 276L706 65L492 65L290 277L482 479L698 479L498 276Z"  horiz-adv-x="717" vert-adv-y="1000"  />

      
      <glyph glyph-name="uniac" unicode="&#xac;" d="M618 426L618 163L446 163L446 289L15 289L15 426L618 426Z"  horiz-adv-x="608" vert-adv-y="1000"  />

      
      <glyph glyph-name="uniae" unicode="&#xae;" d="M212 494L212 479L212 494M274 733Q346 733 408.50 696.50Q471 660 507.50 598Q544 536 544 464Q544 391 507.50 329Q471 267 409 230.50Q347 194 274 194Q201 194 139 230.50Q77 267 41 329Q5 391 5 464Q5 537 41 599Q77 661 139 697Q201 733 274 733M274 289Q322 289 362 312.50Q402 336 425.50 376.50Q449 417 449 464Q449 511 425.50 551Q402 591 361.50 614.50Q321 638 274 638Q226 638 186 615Q146 592 123 552Q100 512 100 464Q100 417 123.50 376.50Q147 336 186.50 312.50Q226 289 274 289M400 502Q400 476 385 458.50Q370 441 342 434L403 365L324 365L267 431L220 431L220 365L156 365L156 572L312 572Q352 572 376 553Q400 534 400 504L400 502M338 501Q338 517 329 521Q320 525 298 525L220 525L220 479L298 479Q320 479 329 482.50Q338 486 338 501Z"  horiz-adv-x="549" vert-adv-y="1000"  />

      
      <glyph glyph-name="uniaf" unicode="&#xaf;" d="M85 778L85 910L522 910L522 778L85 778Z"  horiz-adv-x="600" vert-adv-y="1000"  />

      
      <glyph glyph-name="unib0" unicode="&#xb0;" d="M182 352Q134 352 93.50 376Q53 400 29 440.50Q5 481 5 529Q5 577 29 617.50Q53 658 93.50 682Q134 706 182 706Q231 706 271.50 682.50Q312 659 335.50 618Q359 577 359 529Q359 481 335 440.50Q311 400 270.50 376Q230 352 182 352M182 455Q213 455 234.50 476.50Q256 498 256 529Q256 559 234.50 581Q213 603 182 603Q151 603 129.50 581Q108 559 108 529Q108 498 129.50 476.50Q151 455 182 455Z"  horiz-adv-x="364" vert-adv-y="1000"  />

      
      <glyph glyph-name="unib1" unicode="&#xb1;" d="M296 500L462 500L462 385L296 385L296 219L181 219L181 385L15 385L15 500L181 500L181 666L296 666L296 500M462 194L462 79L15 79L15 194L462 194Z"  horiz-adv-x="477" vert-adv-y="1000"  />

      
      <glyph glyph-name="unib2" unicode="&#xb2;" d="M625 363L625 248L25 248L25 309Q25 391 63.50 435.50Q102 480 149.50 495.50Q197 511 267 522L326 530Q389 537 419 546.50Q449 556 449 581Q449 609 409.50 622Q370 635 314 635Q260 634 223 618Q186 602 186 568L25 568Q25 667 115 703.50Q205 740 314 740Q431 740 521.50 709.50Q612 679 612 580Q612 523 571.50 491.50Q531 460 497 451.50Q463 443 385 428Q376 427 313 417.50Q250 408 208.50 393.50Q167 379 167 363L625 363Z"  horiz-adv-x="647" vert-adv-y="1000"  />

      
      <glyph glyph-name="unib3" unicode="&#xb3;" d="M618 407Q617 318 536 276.50Q455 235 326 235Q180 235 102.50 285Q25 335 25 436L176 436Q176 385 219.50 362Q263 339 326 340Q381 339 419.50 355Q458 371 459 407Q458 433 437.50 442Q417 451 361 451L242 451L242 543L361 543Q412 543 434 556Q456 569 456 588Q456 612 418 623Q380 634 326 635Q263 635 219.50 622Q176 609 176 582L25 582Q25 675 119 708Q213 741 326 741Q440 741 522.50 713.50Q605 686 605 598Q605 564 584 543Q563 522 528 512Q610 486 618 409L618 407L618 407Z"  horiz-adv-x="648" vert-adv-y="1000"  />

      
      <glyph glyph-name="unib4" unicode="&#xb4;" d="M123 777L193 910L417 910L297 777L123 777Z"  horiz-adv-x="521" vert-adv-y="1000"  />

      
      <glyph glyph-name="unib6" unicode="&#xb6;" d="M980 540L881 540L881-120L652-120L652 540L543 540L543-120L314-120L314 240Q220 240 151 273Q82 306 47 362Q12 418 15 486Q15 609 91.50 674Q168 739 314 740L980 740L980 540Z"  horiz-adv-x="995" vert-adv-y="1000"  />

      
      <glyph glyph-name="unib7" unicode="&#xb7;" d="M86 234Q67 234 53.50 247Q40 260 40 279Q40 298 53.50 311.50Q67 325 86 325Q105 325 118 311.50Q131 298 131 279Q131 260 118 247Q105 234 86 234Z"  horiz-adv-x="171" vert-adv-y="1000"  />

      
      <glyph glyph-name="unib8" unicode="&#xb8;" d="M350-42Q407-42 454.50-60.50Q502-79 501-132Q501-200 430-223.50Q359-247 276-247Q71-247 71-124L182-124Q182-154 212.50-162.50Q243-171 265-171Q289-171 318-165Q347-159 347-134Q347-104 272-104L221-104L221 98L350 98L350-42Z"  horiz-adv-x="600" vert-adv-y="1000"  />

      
      <glyph glyph-name="unib9" unicode="&#xb9;" d="M275 740L275 262L126 262L126 572L19 572L19 658Q109 658 134 684Q159 710 159 740L275 740Z"  horiz-adv-x="305" vert-adv-y="1000"  />

      
      <glyph glyph-name="uniba" unicode="&#xba;" d="M266 548Q336 548 391.50 523.50Q447 499 479 455.50Q511 412 511 357Q511 303 479 260Q447 217 391.50 192.50Q336 168 266 168Q199 168 140 192.50Q81 217 46 260.50Q11 304 11 357Q11 411 46 454.50Q81 498 140 523Q199 548 266 548M266 259Q307 259 335.50 284.50Q364 310 364 357Q364 403 335 428.50Q306 454 266 454Q226 454 194 428Q162 402 162 357Q162 311 194 285Q226 259 266 259Z"  horiz-adv-x="522" vert-adv-y="1000"  />

      
      <glyph glyph-name="unibb" unicode="&#xbb;" d="M225 65L11 65L219 276L19 479L235 479L427 277L225 65M510 65L296 65L504 276L304 479L520 479L712 277L510 65Z"  horiz-adv-x="717" vert-adv-y="1000"  />

      
      <glyph glyph-name="unibf" unicode="&#xbf;" d="M591 544L592 359L379 359L378 544L591 544M841 49Q841-109 715.50-163.50Q590-218 433-218Q332-218 242-202.50Q152-187 81.50-131.50Q11-76 11 33Q11 125 61 168.50Q111 212 167 221Q223 230 279 229Q344 230 362.50 254Q381 278 381 315L592 315Q592 228 559 172.50Q526 117 431 114Q371 114 303 96.50Q235 79 235 30Q235-13 293-32.50Q351-52 434-51Q512-49 566.50-24.50Q621 0 621 50L841 49Z"  horiz-adv-x="853" vert-adv-y="1000"  />

      
      <glyph glyph-name="unic0" unicode="&#xc0;" d="M1036 0L787 0L718 127L299 127L230 0L-19 0L382 740L635 740L1036 0M509 514L389 294L628 294L509 514M299 910L523 910L593 777L419 777L299 910Z"  horiz-adv-x="1017" vert-adv-y="1000"  />

      
      <glyph glyph-name="unic1" unicode="&#xc1;" d="M1036 0L787 0L718 127L299 127L230 0L-19 0L382 740L635 740L1036 0M509 514L389 294L628 294L509 514M421 777L491 910L715 910L595 777L421 777Z"  horiz-adv-x="1017" vert-adv-y="1000"  />

      
      <glyph glyph-name="unic2" unicode="&#xc2;" d="M1036 0L787 0L718 127L299 127L230 0L-19 0L382 740L635 740L1036 0M509 514L389 294L628 294L509 514M611 910L791 774L582 774L501 835L424 774L215 774L385 910L611 910Z"  horiz-adv-x="1017" vert-adv-y="1000"  />

      
      <glyph glyph-name="unic3" unicode="&#xc3;" d="M1036 0L787 0L718 127L299 127L230 0L-19 0L382 740L635 740L1036 0M509 514L389 294L628 294L509 514M750 935Q750 788 630 788Q597 788 569 795Q541 802 501 815Q451 827 429 827Q383 827 383 794L252 794Q252 942 372 942Q401 942 429.50 935Q458 928 477 922Q496 916 501 914Q551 902 573 902Q620 902 620 935L750 935Z"  horiz-adv-x="1017" vert-adv-y="1000"  />

      
      <glyph glyph-name="unic4" unicode="&#xc4;" d="M1036 0L787 0L718 127L299 127L230 0L-19 0L382 740L635 740L1036 0M509 514L389 294L628 294L509 514M370 783Q330 783 303 810.50Q276 838 276 878Q276 917 303 944Q330 971 370 971Q409 971 436.50 944Q464 917 464 878Q464 838 436.50 810.50Q409 783 370 783M636 783Q596 783 569 810.50Q542 838 542 878Q542 917 569 944Q596 971 636 971Q675 971 702.50 944Q730 917 730 878Q730 838 702.50 810.50Q675 783 636 783Z"  horiz-adv-x="1017" vert-adv-y="1000"  />

      
      <glyph glyph-name="unic5" unicode="&#xc5;" d="M1036 0L787 0L718 127L299 127L230 0L-19 0L382 740L635 740L1036 0M509 514L389 294L628 294L509 514M342 935Q342 979 364 1016Q386 1053 423.50 1075Q461 1097 505 1097Q548 1097 585.50 1075Q623 1053 645 1015.50Q667 978 667 935Q667 891 645 853.50Q623 816 586 794Q549 772 505 772Q461 772 423.50 794Q386 816 364 853.50Q342 891 342 935M437 935Q437 907 456.50 887Q476 867 505 867Q533 867 552.50 887Q572 907 572 935Q572 962 552 982Q532 1002 505 1002Q477 1002 457 982.50Q437 963 437 935Z"  horiz-adv-x="1017" vert-adv-y="1000"  />

      
      <glyph glyph-name="unic6" unicode="&#xc6;" d="M1397 288L935 288L935 175L1481 179L1481 0L689 0L689 120L336 120L239 0L-19 0L576 740L1481 740L1482 561L935 561L935 463L1397 463L1397 288M689 555L468 286L689 286L689 555Z"  horiz-adv-x="1508" vert-adv-y="1000"  />

      
      <glyph glyph-name="unic7" unicode="&#xc7;" d="M518 169Q587 169 645.50 202Q704 235 732 296L989 296Q969 208 912.50 140Q856 72 769 31Q682-10 572-18L572-46Q629-46 676.50-64.50Q724-83 723-136Q723-204 652-227.50Q581-251 497-251Q293-251 293-128L404-128Q404-158 434-166.50Q464-175 486-175Q510-175 539.50-169Q569-163 569-138Q569-120 546-114.50Q523-109 504-108.50Q485-108 481-108L443-108L443-16Q323-3 226.50 50.50Q130 104 75.50 187Q21 270 21 369Q21 480 86.50 569Q152 658 265.50 708.50Q379 759 517 759Q641 759 741 719.50Q841 680 905 608.50Q969 537 990 441L734 441Q719 481 683.50 510.50Q648 540 604 555Q560 570 518 570Q459 570 403.50 546Q348 522 313.50 476.50Q279 431 279 369Q279 307 313 261.50Q347 216 401.50 192.50Q456 169 518 169Z"  horiz-adv-x="1011" vert-adv-y="1000"  />

      
      <glyph glyph-name="unic8" unicode="&#xc8;" d="M750 288L288 288L288 175L834 179L834 0L41 0L41 740L834 740L835 561L288 561L288 463L750 463L750 288M248 907L472 907L542 774L368 774L248 907Z"  horiz-adv-x="861" vert-adv-y="1000"  />

      
      <glyph glyph-name="unic9" unicode="&#xc9;" d="M750 288L288 288L288 175L834 179L834 0L41 0L41 740L834 740L835 561L288 561L288 463L750 463L750 288M299 777L369 910L593 910L473 777L299 777Z"  horiz-adv-x="861" vert-adv-y="1000"  />

      
      <glyph glyph-name="unica" unicode="&#xca;" d="M750 288L288 288L288 175L834 179L834 0L41 0L41 740L834 740L835 561L288 561L288 463L750 463L750 288M540 910L720 774L511 774L430 835L353 774L144 774L314 910L540 910Z"  horiz-adv-x="861" vert-adv-y="1000"  />

      
      <glyph glyph-name="unicb" unicode="&#xcb;" d="M750 288L288 288L288 175L834 179L834 0L41 0L41 740L834 740L835 561L288 561L288 463L750 463L750 288M294 783Q254 783 227 810.50Q200 838 200 878Q200 917 227 944Q254 971 294 971Q333 971 360.50 944Q388 917 388 878Q388 838 360.50 810.50Q333 783 294 783M560 783Q520 783 493 810.50Q466 838 466 878Q466 917 493 944Q520 971 560 971Q599 971 626.50 944Q654 917 654 878Q654 838 626.50 810.50Q599 783 560 783Z"  horiz-adv-x="861" vert-adv-y="1000"  />

      
      <glyph glyph-name="unicc" unicode="&#xcc;" d="M288 0L41 0L41 740L288 740L288 0M-48 910L176 910L246 777L72 777L-48 910Z"  horiz-adv-x="329" vert-adv-y="1000"  />

      
      <glyph glyph-name="unicd" unicode="&#xcd;" d="M288 0L41 0L41 740L288 740L288 0M73 777L143 910L367 910L247 777L73 777Z"  horiz-adv-x="329" vert-adv-y="1000"  />

      
      <glyph glyph-name="unice" unicode="&#xce;" d="M288 0L41 0L41 740L288 740L288 0M274 910L454 774L245 774L164 835L87 774L-122 774L48 910L274 910Z"  horiz-adv-x="329" vert-adv-y="1000"  />

      
      <glyph glyph-name="unicf" unicode="&#xcf;" d="M288 0L41 0L41 740L288 740L288 0M31 783Q-9 783-36 810.50Q-63 838-63 878Q-63 917-36 944Q-9 971 31 971Q70 971 97.50 944Q125 917 125 878Q125 838 97.50 810.50Q70 783 31 783M297 783Q257 783 230 810.50Q203 838 203 878Q203 917 230 944Q257 971 297 971Q336 971 363.50 944Q391 917 391 878Q391 838 363.50 810.50Q336 783 297 783Z"  horiz-adv-x="329" vert-adv-y="1000"  />

      
      <glyph glyph-name="unid0" unicode="&#xd0;" d="M908 369Q908 264 853 180Q798 96 696 48Q594 0 459 0L459-1L260-1L260 0L63 0L63 284L3 284L3 460L63 460L63 740L458 740Q593 740 695.50 692.50Q798 645 853 560.50Q908 476 908 369M463 198Q550 198 607.50 240.50Q665 283 665 369Q665 417 637.50 456.50Q610 496 563.50 518.50Q517 541 463 541L309 541L309 460L476 460L476 284L309 284L309 198L463 198Z"  horiz-adv-x="930" vert-adv-y="1000"  />

      
      <glyph glyph-name="unid1" unicode="&#xd1;" d="M288 0L41 0L41 740L288 0M986 0L740 0L986 0M740 287L740 740L986 740L986 0L740 0L288 453L288 0L41 0L41 740L288 740L740 287M758 940Q758 793 638 793Q605 793 577 800Q549 807 509 820Q459 832 437 832Q391 832 391 799L260 799Q260 947 380 947Q409 947 437.50 940Q466 933 485 927Q504 921 509 919Q559 907 581 907Q628 907 628 940L758 940Z"  horiz-adv-x="1028" vert-adv-y="1000"  />

      
      <glyph glyph-name="unid2" unicode="&#xd2;" d="M506 756Q643 756 753.50 705.50Q864 655 926.50 566.50Q989 478 989 367Q989 257 926.50 169Q864 81 754 30.50Q644-20 507-20Q375-20 263 30.50Q151 81 85.50 169.50Q20 258 20 367Q20 477 85.50 566Q151 655 262.50 705.50Q374 756 506 756M507 167Q563 167 614.50 191Q666 215 698 260Q730 305 730 367Q730 429 697.50 474.50Q665 520 613 543.50Q561 567 505 567Q448 567 397 543Q346 519 314.50 473.50Q283 428 283 367Q283 305 315 260Q347 215 398.50 191Q450 167 507 167M300 918L524 918L594 785L420 785L300 918Z"  horiz-adv-x="1009" vert-adv-y="1000"  />

      
      <glyph glyph-name="unid3" unicode="&#xd3;" d="M506 756Q643 756 753.50 705.50Q864 655 926.50 566.50Q989 478 989 367Q989 257 926.50 169Q864 81 754 30.50Q644-20 507-20Q375-20 263 30.50Q151 81 85.50 169.50Q20 258 20 367Q20 477 85.50 566Q151 655 262.50 705.50Q374 756 506 756M507 167Q563 167 614.50 191Q666 215 698 260Q730 305 730 367Q730 429 697.50 474.50Q665 520 613 543.50Q561 567 505 567Q448 567 397 543Q346 519 314.50 473.50Q283 428 283 367Q283 305 315 260Q347 215 398.50 191Q450 167 507 167M397 777L467 910L691 910L571 777L397 777Z"  horiz-adv-x="1009" vert-adv-y="1000"  />

      
      <glyph glyph-name="unid4" unicode="&#xd4;" d="M506 756Q643 756 753.50 705.50Q864 655 926.50 566.50Q989 478 989 367Q989 257 926.50 169Q864 81 754 30.50Q644-20 507-20Q375-20 263 30.50Q151 81 85.50 169.50Q20 258 20 367Q20 477 85.50 566Q151 655 262.50 705.50Q374 756 506 756M507 167Q563 167 614.50 191Q666 215 698 260Q730 305 730 367Q730 429 697.50 474.50Q665 520 613 543.50Q561 567 505 567Q448 567 397 543Q346 519 314.50 473.50Q283 428 283 367Q283 305 315 260Q347 215 398.50 191Q450 167 507 167M617 910L797 774L588 774L507 835L430 774L221 774L391 910L617 910Z"  horiz-adv-x="1009" vert-adv-y="1000"  />

      
      <glyph glyph-name="unid5" unicode="&#xd5;" d="M506 756Q643 756 753.50 705.50Q864 655 926.50 566.50Q989 478 989 367Q989 257 926.50 169Q864 81 754 30.50Q644-20 507-20Q375-20 263 30.50Q151 81 85.50 169.50Q20 258 20 367Q20 477 85.50 566Q151 655 262.50 705.50Q374 756 506 756M507 167Q563 167 614.50 191Q666 215 698 260Q730 305 730 367Q730 429 697.50 474.50Q665 520 613 543.50Q561 567 505 567Q448 567 397 543Q346 519 314.50 473.50Q283 428 283 367Q283 305 315 260Q347 215 398.50 191Q450 167 507 167M743 940Q743 793 623 793Q590 793 562 800Q534 807 494 820Q444 832 422 832Q376 832 376 799L245 799Q245 947 365 947Q394 947 422.50 940Q451 933 470 927Q489 921 494 919Q544 907 566 907Q613 907 613 940L743 940Z"  horiz-adv-x="1009" vert-adv-y="1000"  />

      
      <glyph glyph-name="unid6" unicode="&#xd6;" d="M506 756Q643 756 753.50 705.50Q864 655 926.50 566.50Q989 478 989 367Q989 257 926.50 169Q864 81 754 30.50Q644-20 507-20Q375-20 263 30.50Q151 81 85.50 169.50Q20 258 20 367Q20 477 85.50 566Q151 655 262.50 705.50Q374 756 506 756M507 167Q563 167 614.50 191Q666 215 698 260Q730 305 730 367Q730 429 697.50 474.50Q665 520 613 543.50Q561 567 505 567Q448 567 397 543Q346 519 314.50 473.50Q283 428 283 367Q283 305 315 260Q347 215 398.50 191Q450 167 507 167M372 783Q332 783 305 810.50Q278 838 278 878Q278 917 305 944Q332 971 372 971Q411 971 438.50 944Q466 917 466 878Q466 838 438.50 810.50Q411 783 372 783M638 783Q598 783 571 810.50Q544 838 544 878Q544 917 571 944Q598 971 638 971Q677 971 704.50 944Q732 917 732 878Q732 838 704.50 810.50Q677 783 638 783Z"  horiz-adv-x="1009" vert-adv-y="1000"  />

      
      <glyph glyph-name="unid7" unicode="&#xd7;" d="M331 522L413 440L296 323L413 206L331 124L214 241L97 124L15 206L132 323L15 440L97 522L214 405L331 522Z"  horiz-adv-x="428" vert-adv-y="1000"  />

      
      <glyph glyph-name="unid8" unicode="&#xd8;" d="M848 649Q915 596 952 523.50Q989 451 989 367Q989 257 926.50 169Q864 81 754 30.50Q644-20 507-20Q432-20 361-3L327-49L79-49L176 81Q102 134 61 208Q20 282 20 367Q20 477 85.50 566Q151 655 262.50 705.50Q374 756 506 756Q591 756 666 736L698 779L945 779L848 649M283 367Q283 308 313 264L538 565Q516 567 505 567Q448 567 397 543Q346 519 314.50 473.50Q283 428 283 367M507 167Q563 167 614.50 191Q666 215 698 260Q730 305 730 367Q730 416 707 460L489 168Q495 167 507 167Z"  horiz-adv-x="1008" vert-adv-y="1000"  />

      
      <glyph glyph-name="unid9" unicode="&#xd9;" d="M695 740L947 740L947 361Q947 253 887 166Q827 79 725 29.50Q623-20 502-20Q372-20 266 29Q160 78 98.50 164.50Q37 251 36 359L36 740L292 740L292 359Q292 268 354.50 225Q417 182 503 182Q548 182 592 199.50Q636 217 665.50 257Q695 297 695 359L695 740M284 910L508 910L578 777L404 777L284 910Z"  horiz-adv-x="983" vert-adv-y="1000"  />

      
      <glyph glyph-name="unida" unicode="&#xda;" d="M695 740L947 740L947 361Q947 253 887 166Q827 79 725 29.50Q623-20 502-20Q372-20 266 29Q160 78 98.50 164.50Q37 251 36 359L36 740L292 740L292 359Q292 268 354.50 225Q417 182 503 182Q548 182 592 199.50Q636 217 665.50 257Q695 297 695 359L695 740M400 777L470 910L694 910L574 777L400 777Z"  horiz-adv-x="983" vert-adv-y="1000"  />

      
      <glyph glyph-name="unidb" unicode="&#xdb;" d="M695 740L947 740L947 361Q947 253 887 166Q827 79 725 29.50Q623-20 502-20Q372-20 266 29Q160 78 98.50 164.50Q37 251 36 359L36 740L292 740L292 359Q292 268 354.50 225Q417 182 503 182Q548 182 592 199.50Q636 217 665.50 257Q695 297 695 359L695 740M601 910L781 774L572 774L491 835L414 774L205 774L375 910L601 910Z"  horiz-adv-x="983" vert-adv-y="1000"  />

      
      <glyph glyph-name="unidc" unicode="&#xdc;" d="M695 740L947 740L947 361Q947 253 887 166Q827 79 725 29.50Q623-20 502-20Q372-20 266 29Q160 78 98.50 164.50Q37 251 36 359L36 740L292 740L292 359Q292 268 354.50 225Q417 182 503 182Q548 182 592 199.50Q636 217 665.50 257Q695 297 695 359L695 740M351 783Q311 783 284 810.50Q257 838 257 878Q257 917 284 944Q311 971 351 971Q390 971 417.50 944Q445 917 445 878Q445 838 417.50 810.50Q390 783 351 783M617 783Q577 783 550 810.50Q523 838 523 878Q523 917 550 944Q577 971 617 971Q656 971 683.50 944Q711 917 711 878Q711 838 683.50 810.50Q656 783 617 783Z"  horiz-adv-x="983" vert-adv-y="1000"  />

      
      <glyph glyph-name="unidd" unicode="&#xdd;" d="M718 740L973 740L619 311L619 0L354 0L354 310L1 740L256 740L481 465L718 740M391 777L461 910L685 910L565 777L391 777Z"  horiz-adv-x="974" vert-adv-y="1000"  />

      
      <glyph glyph-name="unide" unicode="&#xde;" d="M600 648Q693 648 764.50 617Q836 586 875.50 530.50Q915 475 915 402L915 398Q915 279 830.50 213Q746 147 603 147L288 147L288 0L41 0L41 740L288 740L288 648L600 648M556 322Q609 322 634 325Q659 328 676 344Q693 360 693 397Q693 434 676 451Q659 468 632 472Q605 476 556 476L523 476Q503 476 453 475.50Q403 475 288 475L288 322L555 322L556 322Z"  horiz-adv-x="936" vert-adv-y="1000"  />

      
      <glyph glyph-name="unidf" unicode="&#xdf;" d="M675 382Q787 382 859.50 342.50Q932 303 932 186Q932 111 877 71Q822 31 694 15.50Q566 0 328 0L328 156L431 155Q538 155 608 170.50Q678 186 678 232Q678 264 654.50 275.50Q631 287 584 294Q549 299 527.50 305.50Q506 312 491 328Q476 344 476 373Q476 406 490.50 420Q505 434 533 444Q563 455 577.50 469Q592 483 592 518Q592 572 549 597Q506 622 436 622Q360 622 322.50 586Q285 550 276.50 507.50Q268 465 268 417L268 0L21 0L21 417Q21 543 74.50 615Q128 687 222.50 716Q317 745 454 745Q576 745 655 713.50Q734 682 769.50 632.50Q805 583 805 529Q805 490 788 456.50Q771 423 741.50 402.50Q712 382 675 382Z"  horiz-adv-x="953" vert-adv-y="1000"  />

      
      <glyph glyph-name="unie0" unicode="&#xe0;" d="M389 569Q532 569 646 521Q760 473 760 352L760 0L542 0L525 71L525 76Q500 31 419.50 10Q339-11 244-11Q168-11 92 22.50Q16 56 16 163Q16 332 237 332Q379 332 435 334.50Q491 337 509 344.50Q527 352 528 372L528 385Q527 418 484.50 433.50Q442 449 388 449Q332 448 292.50 428Q253 408 253 367L22 367Q22 443 82 488.50Q142 534 225.50 551.50Q309 569 389 569M374 135Q448 135 486 168Q524 201 527 252L527 266Q489 250 406 250Q320 250 285.50 238Q251 226 250 194Q253 164 281.50 149.50Q310 135 374 135M177 730L401 730L471 597L297 597L177 730Z"  horiz-adv-x="786" vert-adv-y="1000"  />

      
      <glyph glyph-name="unie1" unicode="&#xe1;" d="M389 569Q532 569 646 521Q760 473 760 352L760 0L542 0L525 71L525 76Q500 31 419.50 10Q339-11 244-11Q168-11 92 22.50Q16 56 16 163Q16 332 237 332Q379 332 435 334.50Q491 337 509 344.50Q527 352 528 372L528 385Q527 418 484.50 433.50Q442 449 388 449Q332 448 292.50 428Q253 408 253 367L22 367Q22 443 82 488.50Q142 534 225.50 551.50Q309 569 389 569M374 135Q448 135 486 168Q524 201 527 252L527 266Q489 250 406 250Q320 250 285.50 238Q251 226 250 194Q253 164 281.50 149.50Q310 135 374 135M266 597L336 730L560 730L440 597L266 597Z"  horiz-adv-x="786" vert-adv-y="1000"  />

      
      <glyph glyph-name="unie2" unicode="&#xe2;" d="M389 569Q532 569 646 521Q760 473 760 352L760 0L542 0L525 71L525 76Q500 31 419.50 10Q339-11 244-11Q168-11 92 22.50Q16 56 16 163Q16 332 237 332Q379 332 435 334.50Q491 337 509 344.50Q527 352 528 372L528 385Q527 418 484.50 433.50Q442 449 388 449Q332 448 292.50 428Q253 408 253 367L22 367Q22 443 82 488.50Q142 534 225.50 551.50Q309 569 389 569M374 135Q448 135 486 168Q524 201 527 252L527 266Q489 250 406 250Q320 250 285.50 238Q251 226 250 194Q253 164 281.50 149.50Q310 135 374 135M499 730L679 594L470 594L389 655L312 594L103 594L273 730L499 730Z"  horiz-adv-x="786" vert-adv-y="1000"  />

      
      <glyph glyph-name="unie3" unicode="&#xe3;" d="M389 569Q532 569 646 521Q760 473 760 352L760 0L542 0L525 71L525 76Q500 31 419.50 10Q339-11 244-11Q168-11 92 22.50Q16 56 16 163Q16 332 237 332Q379 332 435 334.50Q491 337 509 344.50Q527 352 528 372L528 385Q527 418 484.50 433.50Q442 449 388 449Q332 448 292.50 428Q253 408 253 367L22 367Q22 443 82 488.50Q142 534 225.50 551.50Q309 569 389 569M374 135Q448 135 486 168Q524 201 527 252L527 266Q489 250 406 250Q320 250 285.50 238Q251 226 250 194Q253 164 281.50 149.50Q310 135 374 135M635 755Q635 608 515 608Q482 608 454 615Q426 622 386 635Q336 647 314 647Q268 647 268 614L137 614Q137 762 257 762Q286 762 314.50 755Q343 748 362 742Q381 736 386 734Q436 722 458 722Q505 722 505 755L635 755Z"  horiz-adv-x="786" vert-adv-y="1000"  />

      
      <glyph glyph-name="unie4" unicode="&#xe4;" d="M389 569Q532 569 646 521Q760 473 760 352L760 0L542 0L525 71L525 76Q500 31 419.50 10Q339-11 244-11Q168-11 92 22.50Q16 56 16 163Q16 332 237 332Q379 332 435 334.50Q491 337 509 344.50Q527 352 528 372L528 385Q527 418 484.50 433.50Q442 449 388 449Q332 448 292.50 428Q253 408 253 367L22 367Q22 443 82 488.50Q142 534 225.50 551.50Q309 569 389 569M374 135Q448 135 486 168Q524 201 527 252L527 266Q489 250 406 250Q320 250 285.50 238Q251 226 250 194Q253 164 281.50 149.50Q310 135 374 135M260 603Q220 603 193 630.50Q166 658 166 698Q166 737 193 764Q220 791 260 791Q299 791 326.50 764Q354 737 354 698Q354 658 326.50 630.50Q299 603 260 603M526 603Q486 603 459 630.50Q432 658 432 698Q432 737 459 764Q486 791 526 791Q565 791 592.50 764Q620 737 620 698Q620 658 592.50 630.50Q565 603 526 603Z"  horiz-adv-x="786" vert-adv-y="1000"  />

      
      <glyph glyph-name="unie5" unicode="&#xe5;" d="M389 569Q532 569 646 521Q760 473 760 352L760 0L542 0L525 71L525 76Q500 31 419.50 10Q339-11 244-11Q168-11 92 22.50Q16 56 16 163Q16 332 237 332Q379 332 435 334.50Q491 337 509 344.50Q527 352 528 372L528 385Q527 418 484.50 433.50Q442 449 388 449Q332 448 292.50 428Q253 408 253 367L22 367Q22 443 82 488.50Q142 534 225.50 551.50Q309 569 389 569M374 135Q448 135 486 168Q524 201 527 252L527 266Q489 250 406 250Q320 250 285.50 238Q251 226 250 194Q253 164 281.50 149.50Q310 135 374 135M219 755Q219 799 241 836Q263 873 300.50 895Q338 917 382 917Q425 917 462.50 895Q500 873 522 835.50Q544 798 544 755Q544 711 522 673.50Q500 636 463 614Q426 592 382 592Q338 592 300.50 614Q263 636 241 673.50Q219 711 219 755M314 755Q314 727 333.50 707Q353 687 382 687Q410 687 429.50 707Q449 727 449 755Q449 782 429 802Q409 822 382 822Q354 822 334 802.50Q314 783 314 755Z"  horiz-adv-x="786" vert-adv-y="1000"  />

      
      <glyph glyph-name="unie6" unicode="&#xe6;" d="M1305 250L772 250Q779 187 819.50 146.50Q860 106 930 106Q987 106 1031.50 133.50Q1076 161 1076 218L1305 218Q1305 102 1205.50 41Q1106-20 929-20Q830-20 746.50 11Q663 42 610 98Q590 68 538.50 43Q487 18 415.50 3.50Q344-11 266-11Q183-11 99.50 22.50Q16 56 16 163Q16 332 237 332Q389 332 445 335Q501 338 514.50 347.50Q528 357 528 383Q528 418 485.50 433.50Q443 449 388 449Q332 448 292.50 428.50Q253 409 253 367L22 367Q22 443 82 488.50Q142 534 225.50 551.50Q309 569 389 569Q466 569 542 554.50Q618 540 672 506Q724 538 790 555Q856 572 929 572Q1041 572 1125.50 536Q1210 500 1257 434.50Q1304 369 1305 281L1305 276L1307 276L1305 276L1305 250M929 450Q863 450 828 422Q793 394 780 344L1070 344Q1059 394 1026 422Q993 450 929 450M538 269L538 271Q538 270 537 270L538 269M374 135Q426 135 463 154Q500 173 518.50 204Q537 235 537 270Q495 250 406 250Q320 250 285.50 238Q251 226 250 194Q253 164 281.50 149.50Q310 135 374 135Z"  horiz-adv-x="1327" vert-adv-y="1000"  />

      
      <glyph glyph-name="unie7" unicode="&#xe7;" d="M389 118Q440 118 475 145Q510 172 521 216L751 216Q741 156 701 105.50Q661 55 597 21.50Q533-12 453-22L453-51Q510-51 557.50-69.50Q605-88 604-141Q604-209 533-232.50Q462-256 378-256Q174-256 174-133L285-133Q285-162 315.50-171Q346-180 367-180Q390-180 420-173.50Q450-167 450-143Q450-113 375-113L324-113L324-22Q235-10 164 30.50Q93 71 52 133Q11 195 11 269Q11 353 61 420.50Q111 488 198 526Q285 564 390 564Q490 564 566.50 533.50Q643 503 690 448Q737 393 752 321L522 321Q511 366 476 393Q441 420 391 420Q326 420 285 378.50Q244 337 244 269Q244 203 284 160.50Q324 118 389 118Z"  horiz-adv-x="764" vert-adv-y="1000"  />

      
      <glyph glyph-name="unie8" unicode="&#xe8;" d="M778 250L245 250Q252 187 292.50 146.50Q333 106 403 106Q460 106 504.50 133.50Q549 161 549 218L778 218Q778 102 678.50 41Q579-20 402-20Q293-20 204 17Q115 54 63 121.50Q11 189 11 276Q11 364 62.50 431.50Q114 499 203.50 535.50Q293 572 402 572Q514 572 598.50 536Q683 500 730 434.50Q777 369 778 281L778 276L780 276L778 276L778 250M402 450Q336 450 301 422Q266 394 253 344L543 344Q532 394 499 422Q466 450 402 450M195 730L419 730L489 597L315 597L195 730Z"  horiz-adv-x="791" vert-adv-y="1000"  />

      
      <glyph glyph-name="unie9" unicode="&#xe9;" d="M778 250L245 250Q252 187 292.50 146.50Q333 106 403 106Q460 106 504.50 133.50Q549 161 549 218L778 218Q778 102 678.50 41Q579-20 402-20Q293-20 204 17Q115 54 63 121.50Q11 189 11 276Q11 364 62.50 431.50Q114 499 203.50 535.50Q293 572 402 572Q514 572 598.50 536Q683 500 730 434.50Q777 369 778 281L778 276L780 276L778 276L778 250M402 450Q336 450 301 422Q266 394 253 344L543 344Q532 394 499 422Q466 450 402 450M294 597L364 730L588 730L468 597L294 597Z"  horiz-adv-x="791" vert-adv-y="1000"  />

      
      <glyph glyph-name="uniea" unicode="&#xea;" d="M778 250L245 250Q252 187 292.50 146.50Q333 106 403 106Q460 106 504.50 133.50Q549 161 549 218L778 218Q778 102 678.50 41Q579-20 402-20Q293-20 204 17Q115 54 63 121.50Q11 189 11 276Q11 364 62.50 431.50Q114 499 203.50 535.50Q293 572 402 572Q514 572 598.50 536Q683 500 730 434.50Q777 369 778 281L778 276L780 276L778 276L778 250M402 450Q336 450 301 422Q266 394 253 344L543 344Q532 394 499 422Q466 450 402 450M506 730L686 594L477 594L396 655L319 594L110 594L280 730L506 730Z"  horiz-adv-x="791" vert-adv-y="1000"  />

      
      <glyph glyph-name="unieb" unicode="&#xeb;" d="M778 250L245 250Q252 187 292.50 146.50Q333 106 403 106Q460 106 504.50 133.50Q549 161 549 218L778 218Q778 102 678.50 41Q579-20 402-20Q293-20 204 17Q115 54 63 121.50Q11 189 11 276Q11 364 62.50 431.50Q114 499 203.50 535.50Q293 572 402 572Q514 572 598.50 536Q683 500 730 434.50Q777 369 778 281L778 276L780 276L778 276L778 250M402 450Q336 450 301 422Q266 394 253 344L543 344Q532 394 499 422Q466 450 402 450M263 603Q223 603 196 630.50Q169 658 169 698Q169 737 196 764Q223 791 263 791Q302 791 329.50 764Q357 737 357 698Q357 658 329.50 630.50Q302 603 263 603M529 603Q489 603 462 630.50Q435 658 435 698Q435 737 462 764Q489 791 529 791Q568 791 595.50 764Q623 737 623 698Q623 658 595.50 630.50Q568 603 529 603Z"  horiz-adv-x="791" vert-adv-y="1000"  />

      
      <glyph glyph-name="uniec" unicode="&#xec;" d="M-76 697L148 697L218 564L44 564L-76 697M244 0L14 0L14 545L244 545L244 0Z"  horiz-adv-x="270" vert-adv-y="1000"  />

      
      <glyph glyph-name="unied" unicode="&#xed;" d="M49 565L119 698L343 698L223 565L49 565M256 0L26 0L26 545L256 545L256 0Z"  horiz-adv-x="369" vert-adv-y="1000"  />

      
      <glyph glyph-name="uniee" unicode="&#xee;" d="M235 570L153 632L76 570L-133 570L37 706L264 706L444 570L235 570M264 0L34 0L34 545L264 545L264 0Z"  horiz-adv-x="311" vert-adv-y="1000"  />

      
      <glyph glyph-name="unief" unicode="&#xef;" d="M27 569Q-13 569-40.50 596.50Q-68 624-68 664Q-68 703-40.50 730Q-13 757 27 757Q66 757 93.50 730Q121 703 121 664Q121 624 93.50 596.50Q66 569 27 569M293 569Q253 569 225.50 596.50Q198 624 198 664Q198 703 225.50 730Q253 757 293 757Q332 757 359.50 730Q387 703 387 664Q387 624 359.50 596.50Q332 569 293 569M273 0L43 0L43 545L273 545L273 0Z"  horiz-adv-x="319" vert-adv-y="1000"  />

      
      <glyph glyph-name="unif0" unicode="&#xf0;" d="M692 473Q737 434 761.50 382.50Q786 331 786 273Q786 190 736.50 122.50Q687 55 600.50 17Q514-21 406-21Q302-21 211 17.50Q120 56 65.50 123.50Q11 191 11 273Q11 348 56.50 411.50Q102 475 179 515Q256 555 349 565Q339 572 331 578Q323 584 317 588L160 546L74 612L227 653Q155 703 106 739L348 739Q366 725 402 699L547 738L632 673L492 635Q566 582 611.50 545.50Q657 509 692 473M406 122Q446 122 480.50 139Q515 156 536 190.50Q557 225 557 273Q557 321 536 355.50Q515 390 480.50 407Q446 424 406 424Q367 424 329.50 406.50Q292 389 268 355Q244 321 244 273Q244 225 268 191Q292 157 329.50 139.50Q367 122 406 122Z"  horiz-adv-x="797" vert-adv-y="1000"  />

      
      <glyph glyph-name="unif1" unicode="&#xf1;" d="M487 563Q610 563 677.50 484Q745 405 745 225L745 0L515 0L515 222Q515 285 508 325Q501 365 474 392Q447 419 390 419Q330 419 301 393.50Q272 368 264 328Q256 288 256 223L256 0L26 0L26 545L256 545L256 477Q332 563 487 563M620 741Q620 594 500 594Q467 594 439 601Q411 608 371 621Q321 633 299 633Q253 633 253 600L122 600Q122 748 242 748Q271 748 299.50 741Q328 734 347 728Q366 722 371 720Q421 708 443 708Q490 708 490 741L620 741Z"  horiz-adv-x="766" vert-adv-y="1000"  />

      
      <glyph glyph-name="unif2" unicode="&#xf2;" d="M406 568Q514 568 601 530Q688 492 737 424.50Q786 357 786 273Q786 190 736.50 122.50Q687 55 600.50 17Q514-21 406-21Q302-21 211 17.50Q120 56 65.50 123.50Q11 191 11 273Q11 356 65.50 423.50Q120 491 210.50 529.50Q301 568 406 568M406 122Q446 122 480.50 139Q515 156 536 190.50Q557 225 557 273Q557 321 536 355.50Q515 390 480.50 407Q446 424 406 424Q367 424 329.50 406.50Q292 389 268 355Q244 321 244 273Q244 225 268 191Q292 157 329.50 139.50Q367 122 406 122M202 730L426 730L496 597L322 597L202 730Z"  horiz-adv-x="797" vert-adv-y="1000"  />

      
      <glyph glyph-name="unif3" unicode="&#xf3;" d="M406 568Q514 568 601 530Q688 492 737 424.50Q786 357 786 273Q786 190 736.50 122.50Q687 55 600.50 17Q514-21 406-21Q302-21 211 17.50Q120 56 65.50 123.50Q11 191 11 273Q11 356 65.50 423.50Q120 491 210.50 529.50Q301 568 406 568M406 122Q446 122 480.50 139Q515 156 536 190.50Q557 225 557 273Q557 321 536 355.50Q515 390 480.50 407Q446 424 406 424Q367 424 329.50 406.50Q292 389 268 355Q244 321 244 273Q244 225 268 191Q292 157 329.50 139.50Q367 122 406 122M299 597L369 730L593 730L473 597L299 597Z"  horiz-adv-x="797" vert-adv-y="1000"  />

      
      <glyph glyph-name="unif4" unicode="&#xf4;" d="M406 568Q514 568 601 530Q688 492 737 424.50Q786 357 786 273Q786 190 736.50 122.50Q687 55 600.50 17Q514-21 406-21Q302-21 211 17.50Q120 56 65.50 123.50Q11 191 11 273Q11 356 65.50 423.50Q120 491 210.50 529.50Q301 568 406 568M406 122Q446 122 480.50 139Q515 156 536 190.50Q557 225 557 273Q557 321 536 355.50Q515 390 480.50 407Q446 424 406 424Q367 424 329.50 406.50Q292 389 268 355Q244 321 244 273Q244 225 268 191Q292 157 329.50 139.50Q367 122 406 122M507 730L687 594L478 594L397 655L320 594L111 594L281 730L507 730Z"  horiz-adv-x="797" vert-adv-y="1000"  />

      
      <glyph glyph-name="unif5" unicode="&#xf5;" d="M406 568Q514 568 601 530Q688 492 737 424.50Q786 357 786 273Q786 190 736.50 122.50Q687 55 600.50 17Q514-21 406-21Q302-21 211 17.50Q120 56 65.50 123.50Q11 191 11 273Q11 356 65.50 423.50Q120 491 210.50 529.50Q301 568 406 568M406 122Q446 122 480.50 139Q515 156 536 190.50Q557 225 557 273Q557 321 536 355.50Q515 390 480.50 407Q446 424 406 424Q367 424 329.50 406.50Q292 389 268 355Q244 321 244 273Q244 225 268 191Q292 157 329.50 139.50Q367 122 406 122M644 737Q644 590 524 590Q491 590 463 597Q435 604 395 617Q345 629 323 629Q277 629 277 596L146 596Q146 744 266 744Q295 744 323.50 737Q352 730 371 724Q390 718 395 716Q445 704 467 704Q514 704 514 737L644 737Z"  horiz-adv-x="797" vert-adv-y="1000"  />

      
      <glyph glyph-name="unif6" unicode="&#xf6;" d="M406 568Q514 568 601 530Q688 492 737 424.50Q786 357 786 273Q786 190 736.50 122.50Q687 55 600.50 17Q514-21 406-21Q302-21 211 17.50Q120 56 65.50 123.50Q11 191 11 273Q11 356 65.50 423.50Q120 491 210.50 529.50Q301 568 406 568M406 122Q446 122 480.50 139Q515 156 536 190.50Q557 225 557 273Q557 321 536 355.50Q515 390 480.50 407Q446 424 406 424Q367 424 329.50 406.50Q292 389 268 355Q244 321 244 273Q244 225 268 191Q292 157 329.50 139.50Q367 122 406 122M263 603Q223 603 196 630.50Q169 658 169 698Q169 737 196 764Q223 791 263 791Q302 791 329.50 764Q357 737 357 698Q357 658 329.50 630.50Q302 603 263 603M529 603Q489 603 462 630.50Q435 658 435 698Q435 737 462 764Q489 791 529 791Q568 791 595.50 764Q623 737 623 698Q623 658 595.50 630.50Q568 603 529 603Z"  horiz-adv-x="797" vert-adv-y="1000"  />

      
      <glyph glyph-name="unif7" unicode="&#xf7;" d="M240 432Q208 432 186 454Q164 476 164 508Q164 540 186 562Q208 584 240 584Q272 584 294 562Q316 540 316 508Q316 476 294 454Q272 432 240 432M462 381L462 266L15 266L15 381L462 381M240 62Q208 62 186 84Q164 106 164 138Q164 170 186 192Q208 214 240 214Q272 214 294 192Q316 170 316 138Q316 106 294 84Q272 62 240 62Z"  horiz-adv-x="477" vert-adv-y="1000"  />

      
      <glyph glyph-name="unif8" unicode="&#xf8;" d="M642 507Q708 467 745 406Q782 345 782 273Q782 190 732.50 122.50Q683 55 596.50 17Q510-21 402-21Q338-21 274-5L255-31L102-31L156 44Q87 84 47.50 143.50Q8 203 8 273Q8 356 62.50 423.50Q117 491 207.50 529.50Q298 568 402 568Q465 568 524 554L544 582L696 582L642 507M240 273Q240 228 263 192L429 422Q411 424 402 424Q363 424 325.50 406.50Q288 389 264 355Q240 321 240 273M402 122Q442 122 476.50 139Q511 156 532.50 190.50Q554 225 554 273Q554 319 533 355L368 125Q385 122 402 122Z"  horiz-adv-x="792" vert-adv-y="1000"  />

      
      <glyph glyph-name="unif9" unicode="&#xf9;" d="M515 545L745 545L745 0L515 0L515 68Q439-18 284-18Q161-18 93.50 61Q26 140 26 320L26 545L256 545L256 323Q256 260 263 220Q270 180 297 153Q324 126 381 126Q460 126 487.50 180.50Q515 235 515 323L515 545M180 730L404 730L474 597L300 597L180 730Z"  horiz-adv-x="771" vert-adv-y="1000"  />

      
      <glyph glyph-name="unifa" unicode="&#xfa;" d="M515 545L745 545L745 0L515 0L515 68Q439-18 284-18Q161-18 93.50 61Q26 140 26 320L26 545L256 545L256 323Q256 260 263 220Q270 180 297 153Q324 126 381 126Q460 126 487.50 180.50Q515 235 515 323L515 545M272 597L342 730L566 730L446 597L272 597Z"  horiz-adv-x="771" vert-adv-y="1000"  />

      
      <glyph glyph-name="unifb" unicode="&#xfb;" d="M515 545L745 545L745 0L515 0L515 68Q439-18 284-18Q161-18 93.50 61Q26 140 26 320L26 545L256 545L256 323Q256 260 263 220Q270 180 297 153Q324 126 381 126Q460 126 487.50 180.50Q515 235 515 323L515 545M490 730L670 594L461 594L380 655L303 594L94 594L264 730L490 730Z"  horiz-adv-x="771" vert-adv-y="1000"  />

      
      <glyph glyph-name="unifc" unicode="&#xfc;" d="M515 545L745 545L745 0L515 0L515 68Q439-18 284-18Q161-18 93.50 61Q26 140 26 320L26 545L256 545L256 323Q256 260 263 220Q270 180 297 153Q324 126 381 126Q460 126 487.50 180.50Q515 235 515 323L515 545M244 595Q204 595 177 622.50Q150 650 150 690Q150 729 177 756Q204 783 244 783Q283 783 310.50 756Q338 729 338 690Q338 650 310.50 622.50Q283 595 244 595M510 595Q470 595 443 622.50Q416 650 416 690Q416 729 443 756Q470 783 510 783Q549 783 576.50 756Q604 729 604 690Q604 650 576.50 622.50Q549 595 510 595Z"  horiz-adv-x="771" vert-adv-y="1000"  />

      
      <glyph glyph-name="unifd" unicode="&#xfd;" d="M868 545L532-123Q499-189 404.50-208Q310-227 192-227L192-44Q249-44 271-37Q293-30 293-17Q293-13 289-3L8 545L254 545L440 142L622 545L868 545M318 597L388 730L612 730L492 597L318 597Z"  horiz-adv-x="876" vert-adv-y="1000"  />

      
      <glyph glyph-name="unife" unicode="&#xfe;" d="M780 179L780 179Q778 108 744.50 44Q711-20 651-59.50Q591-99 515-99Q342-99 256-20L256-190L26-190L26 545L256 545L256 400Q343 480 515 476Q592 476 651.50 438Q711 400 745 334Q779 268 780 186L780 183L780 179M399 37Q446 37 479.50 58Q513 79 530 112.50Q547 146 548 184Q546 253 508.50 297.50Q471 342 399 342Q358 342 325.50 321.50Q293 301 275 267Q257 233 257 194L256 194L256 191L257 191Q257 121 296.50 79Q336 37 399 37Z"  horiz-adv-x="800" vert-adv-y="1000"  />

      
      <glyph glyph-name="uniff" unicode="&#xff;" d="M868 545L532-123Q499-189 404.50-208Q310-227 192-227L192-44Q249-44 271-37Q293-30 293-17Q293-13 289-3L8 545L254 545L440 142L622 545L868 545M285 603Q245 603 218 630.50Q191 658 191 698Q191 737 218 764Q245 791 285 791Q324 791 351.50 764Q379 737 379 698Q379 658 351.50 630.50Q324 603 285 603M551 603Q511 603 484 630.50Q457 658 457 698Q457 737 484 764Q511 791 551 791Q590 791 617.50 764Q645 737 645 698Q645 658 617.50 630.50Q590 603 551 603Z"  horiz-adv-x="876" vert-adv-y="1000"  />

      
      <glyph glyph-name="uni0100" unicode="&#x0100;" d="M1036 0L787 0L718 127L299 127L230 0L-19 0L382 740L635 740L1036 0M509 514L389 294L628 294L509 514M286 773L286 905L723 905L723 773L286 773Z"  horiz-adv-x="1017" vert-adv-y="1000"  />

      
      <glyph glyph-name="uni0101" unicode="&#x0101;" d="M389 569Q532 569 646 521Q760 473 760 352L760 0L542 0L525 71L525 76Q500 31 419.50 10Q339-11 244-11Q168-11 92 22.50Q16 56 16 163Q16 332 237 332Q379 332 435 334.50Q491 337 509 344.50Q527 352 528 372L528 385Q527 418 484.50 433.50Q442 449 388 449Q332 448 292.50 428Q253 408 253 367L22 367Q22 443 82 488.50Q142 534 225.50 551.50Q309 569 389 569M374 135Q448 135 486 168Q524 201 527 252L527 266Q489 250 406 250Q320 250 285.50 238Q251 226 250 194Q253 164 281.50 149.50Q310 135 374 135M172 602L172 734L609 734L609 602L172 602Z"  horiz-adv-x="786" vert-adv-y="1000"  />

      
      <glyph glyph-name="uni0102" unicode="&#x0102;" d="M1036 0L787 0L718 127L299 127L230 0L-19 0L382 740L635 740L1036 0M509 514L389 294L628 294L509 514M749 975Q749 876 680.50 826Q612 776 503 776Q392 776 323 826Q254 876 254 975L391 975Q391 929 423 897.50Q455 866 502 866Q548 866 580.50 897.50Q613 929 613 975L749 975Z"  horiz-adv-x="1017" vert-adv-y="1000"  />

      
      <glyph glyph-name="uni0103" unicode="&#x0103;" d="M389 569Q532 569 646 521Q760 473 760 352L760 0L542 0L525 71L525 76Q500 31 419.50 10Q339-11 244-11Q168-11 92 22.50Q16 56 16 163Q16 332 237 332Q379 332 435 334.50Q491 337 509 344.50Q527 352 528 372L528 385Q527 418 484.50 433.50Q442 449 388 449Q332 448 292.50 428Q253 408 253 367L22 367Q22 443 82 488.50Q142 534 225.50 551.50Q309 569 389 569M374 135Q448 135 486 168Q524 201 527 252L527 266Q489 250 406 250Q320 250 285.50 238Q251 226 250 194Q253 164 281.50 149.50Q310 135 374 135M636 801Q636 702 567.50 652Q499 602 390 602Q279 602 210 652Q141 702 141 801L278 801Q278 755 310 723.50Q342 692 389 692Q435 692 467.50 723.50Q500 755 500 801L636 801Z"  horiz-adv-x="786" vert-adv-y="1000"  />

      
      <glyph glyph-name="uni0104" unicode="&#x0104;" d="M766-68Q766-101 782.50-119Q799-137 852-137L852-180Q784-182 744.50-171.50Q705-161 687.50-136.50Q670-112 670-68Q670-19 692 6.50Q714 32 765 40L718 127L299 127L230 0L-19 0L382 740L635 740L1036 0L830 0Q791-4 778.50-21.50Q766-39 766-68M509 514L389 294L628 294L509 514Z"  horiz-adv-x="1017" vert-adv-y="1000"  />

      
      <glyph glyph-name="uni0105" unicode="&#x0105;" d="M760 0L759 0L759-1Q706-1 689.50-19Q673-37 673-70Q673-103 689.50-121Q706-139 759-139L759-182Q691-184 651.50-173.50Q612-163 594.50-138.50Q577-114 577-70Q577-25 596 0L542 0L525 71L525 76Q500 31 419.50 10Q339-11 244-11Q168-11 92 22.50Q16 56 16 163Q16 332 237 332Q379 332 435 334.50Q491 337 509 344.50Q527 352 528 372L528 385Q527 418 484.50 433.50Q442 449 388 449Q332 448 292.50 428Q253 408 253 367L22 367Q22 443 82 488.50Q142 534 225.50 551.50Q309 569 389 569Q532 569 646 521Q760 473 760 352L760 0M374 135Q448 135 486 168Q524 201 527 252L527 266Q489 250 406 250Q320 250 285.50 238Q251 226 250 194Q253 164 281.50 149.50Q310 135 374 135Z"  horiz-adv-x="786" vert-adv-y="1000"  />

      
      <glyph glyph-name="uni0106" unicode="&#x0106;" d="M21 369Q21 480 86.50 569Q152 658 265.50 708.50Q379 759 517 759Q641 759 741 719.50Q841 680 905 608.50Q969 537 990 441L734 441Q719 481 683.50 510.50Q648 540 604 555Q560 570 518 570Q459 570 403.50 546Q348 522 313.50 476.50Q279 431 279 369Q279 307 313 261.50Q347 216 401.50 192.50Q456 169 518 169Q587 169 645.50 202Q704 235 732 296L989 296Q967 201 903 129.50Q839 58 740 19Q641-20 517-20Q380-20 266.50 31Q153 82 87 171Q21 260 21 369M403 792L473 925L697 925L577 792L403 792Z"  horiz-adv-x="1011" vert-adv-y="1000"  />

      
      <glyph glyph-name="uni0107" unicode="&#x0107;" d="M11 269Q11 353 61 420.50Q111 488 198 526Q285 564 390 564Q490 564 566.50 533.50Q643 503 690 448Q737 393 752 321L522 321Q511 366 476 393Q441 420 391 420Q326 420 285 378.50Q244 337 244 269Q244 203 284 160.50Q324 118 389 118Q440 118 475 145Q510 172 521 216L751 216Q740 148 691 93Q642 38 563.50 6Q485-26 390-26Q286-26 199 12.50Q112 51 61.50 118.50Q11 186 11 269M281 597L351 730L575 730L455 597L281 597Z"  horiz-adv-x="764" vert-adv-y="1000"  />

      
      <glyph glyph-name="uni010A" unicode="&#x010A;" d="M21 369Q21 480 86.50 569Q152 658 265.50 708.50Q379 759 517 759Q641 759 741 719.50Q841 680 905 608.50Q969 537 990 441L734 441Q719 481 683.50 510.50Q648 540 604 555Q560 570 518 570Q459 570 403.50 546Q348 522 313.50 476.50Q279 431 279 369Q279 307 313 261.50Q347 216 401.50 192.50Q456 169 518 169Q587 169 645.50 202Q704 235 732 296L989 296Q967 201 903 129.50Q839 58 740 19Q641-20 517-20Q380-20 266.50 31Q153 82 87 171Q21 260 21 369M498 793Q458 793 430.50 820.50Q403 848 403 888Q403 927 430.50 954Q458 981 498 981Q537 981 564.50 954Q592 927 592 888Q592 848 564.50 820.50Q537 793 498 793Z"  horiz-adv-x="1011" vert-adv-y="1000"  />

      
      <glyph glyph-name="uni010B" unicode="&#x010B;" d="M11 269Q11 353 61 420.50Q111 488 198 526Q285 564 390 564Q490 564 566.50 533.50Q643 503 690 448Q737 393 752 321L522 321Q511 366 476 393Q441 420 391 420Q326 420 285 378.50Q244 337 244 269Q244 203 284 160.50Q324 118 389 118Q440 118 475 145Q510 172 521 216L751 216Q740 148 691 93Q642 38 563.50 6Q485-26 390-26Q286-26 199 12.50Q112 51 61.50 118.50Q11 186 11 269M380 596Q340 596 312.50 623.50Q285 651 285 691Q285 730 312.50 757Q340 784 380 784Q419 784 446.50 757Q474 730 474 691Q474 651 446.50 623.50Q419 596 380 596Z"  horiz-adv-x="764" vert-adv-y="1000"  />

      
      <glyph glyph-name="uni010C" unicode="&#x010C;" d="M21 369Q21 480 86.50 569Q152 658 265.50 708.50Q379 759 517 759Q641 759 741 719.50Q841 680 905 608.50Q969 537 990 441L734 441Q719 481 683.50 510.50Q648 540 604 555Q560 570 518 570Q459 570 403.50 546Q348 522 313.50 476.50Q279 431 279 369Q279 307 313 261.50Q347 216 401.50 192.50Q456 169 518 169Q587 169 645.50 202Q704 235 732 296L989 296Q967 201 903 129.50Q839 58 740 19Q641-20 517-20Q380-20 266.50 31Q153 82 87 171Q21 260 21 369M506 867L587 928L796 928L616 792L390 792L220 928L429 928L506 867Z"  horiz-adv-x="1011" vert-adv-y="1000"  />

      
      <glyph glyph-name="uni010D" unicode="&#x010D;" d="M11 269Q11 353 61 420.50Q111 488 198 526Q285 564 390 564Q490 564 566.50 533.50Q643 503 690 448Q737 393 752 321L522 321Q511 366 476 393Q441 420 391 420Q326 420 285 378.50Q244 337 244 269Q244 203 284 160.50Q324 118 389 118Q440 118 475 145Q510 172 521 216L751 216Q740 148 691 93Q642 38 563.50 6Q485-26 390-26Q286-26 199 12.50Q112 51 61.50 118.50Q11 186 11 269M378 672L459 733L668 733L488 597L262 597L92 733L301 733L378 672Z"  horiz-adv-x="764" vert-adv-y="1000"  />

      
      <glyph glyph-name="uni010E" unicode="&#x010E;" d="M887 369Q887 264 831.50 180Q776 96 674 48Q572 0 437 0L437-1L238-1L238 0L41 0L41 740L436 740Q571 740 673.50 692Q776 644 831.50 560Q887 476 887 369M442 198Q529 198 586.50 240.50Q644 283 644 369Q644 417 616 456.50Q588 496 541.50 518.50Q495 541 442 541L288 541L288 198L442 198M380 849L461 910L670 910L490 774L264 774L94 910L303 910L380 849Z"  horiz-adv-x="908" vert-adv-y="1000"  />

      
      <glyph glyph-name="uni010F" unicode="&#x010F;" d="M811 739L973 739L973 615Q971 575 947.50 549Q924 523 877 523L810 523L810 571L829 571Q846 571 850 579Q854 587 854 605L854 615L811 615L811 739M538 740L768 740L768 2L558 2L546 67Q461-15 280-11Q203-11 143.50 27.50Q84 66 50 132.50Q16 199 15 281L15 284L15 287Q17 358 50 422Q83 486 143 525.50Q203 565 280 565Q453 565 538 487L538 740M396 124Q436 124 468.50 144.50Q501 165 519.50 199Q538 233 538 272L538 275Q538 345 498.50 387Q459 429 396 429Q325 429 286.50 385.50Q248 342 247 282Q248 213 286 168.50Q324 124 396 124Z"  horiz-adv-x="975" vert-adv-y="1000"  />

      
      <glyph glyph-name="uni0110" unicode="&#x0110;" d="M908 369Q908 264 853 180Q798 96 696 48Q594 0 459 0L459-1L260-1L260 0L63 0L63 284L3 284L3 460L63 460L63 740L458 740Q593 740 695.50 692.50Q798 645 853 560.50Q908 476 908 369M463 198Q550 198 607.50 240.50Q665 283 665 369Q665 417 637.50 456.50Q610 496 563.50 518.50Q517 541 463 541L309 541L309 460L476 460L476 284L309 284L309 198L463 198Z"  horiz-adv-x="930" vert-adv-y="1000"  />

      
      <glyph glyph-name="uni0111" unicode="&#x0111;" d="M842 695L842 577L768 577L768 2L558 2L546 67Q461-15 280-11Q203-11 143.50 27.50Q84 66 50 132.50Q16 199 15 281L15 284L15 287Q17 358 50 422Q83 486 143 525.50Q203 565 280 565Q453 565 538 487L538 577L398 577L398 695L538 695L538 740L768 740L768 695L842 695M396 124Q436 124 468.50 144.50Q501 165 519.50 199Q538 233 538 272L538 275Q538 345 498.50 387Q459 429 396 429Q325 429 286.50 385.50Q248 342 247 282Q248 213 286 168.50Q324 124 396 124Z"  horiz-adv-x="857" vert-adv-y="1000"  />

      
      <glyph glyph-name="uni0112" unicode="&#x0112;" d="M750 288L288 288L288 175L834 179L834 0L41 0L41 740L834 740L835 561L288 561L288 463L750 463L750 288M206 774L206 906L643 906L643 774L206 774Z"  horiz-adv-x="861" vert-adv-y="1000"  />

      
      <glyph glyph-name="uni0113" unicode="&#x0113;" d="M778 250L245 250Q252 187 292.50 146.50Q333 106 403 106Q460 106 504.50 133.50Q549 161 549 218L778 218Q778 102 678.50 41Q579-20 402-20Q293-20 204 17Q115 54 63 121.50Q11 189 11 276Q11 364 62.50 431.50Q114 499 203.50 535.50Q293 572 402 572Q514 572 598.50 536Q683 500 730 434.50Q777 369 778 281L778 276L780 276L778 276L778 250M402 450Q336 450 301 422Q266 394 253 344L543 344Q532 394 499 422Q466 450 402 450M186 604L186 736L623 736L623 604L186 604Z"  horiz-adv-x="791" vert-adv-y="1000"  />

      
      <glyph glyph-name="uni0116" unicode="&#x0116;" d="M750 288L288 288L288 175L834 179L834 0L41 0L41 740L834 740L835 561L288 561L288 463L750 463L750 288M431 783Q391 783 363.50 810.50Q336 838 336 878Q336 917 363.50 944Q391 971 431 971Q470 971 497.50 944Q525 917 525 878Q525 838 497.50 810.50Q470 783 431 783Z"  horiz-adv-x="861" vert-adv-y="1000"  />

      
      <glyph glyph-name="uni0117" unicode="&#x0117;" d="M778 250L245 250Q252 187 292.50 146.50Q333 106 403 106Q460 106 504.50 133.50Q549 161 549 218L778 218Q778 102 678.50 41Q579-20 402-20Q293-20 204 17Q115 54 63 121.50Q11 189 11 276Q11 364 62.50 431.50Q114 499 203.50 535.50Q293 572 402 572Q514 572 598.50 536Q683 500 730 434.50Q777 369 778 281L778 276L780 276L778 276L778 250M402 450Q336 450 301 422Q266 394 253 344L543 344Q532 394 499 422Q466 450 402 450M397 604Q357 604 329.50 631.50Q302 659 302 699Q302 738 329.50 765Q357 792 397 792Q436 792 463.50 765Q491 738 491 699Q491 659 463.50 631.50Q436 604 397 604Z"  horiz-adv-x="791" vert-adv-y="1000"  />

      
      <glyph glyph-name="uni0118" unicode="&#x0118;" d="M288 288L288 175L834 179L834 0L833 0Q780 0 763.50-18Q747-36 747-69Q747-102 763.50-120Q780-138 833-138L833-181Q765-183 725.50-172.50Q686-162 668.50-137.50Q651-113 651-69Q651-24 669 0L41 0L41 740L834 740L835 561L288 561L288 463L750 463L750 288L288 288Z"  horiz-adv-x="861" vert-adv-y="1000"  />

      
      <glyph glyph-name="uni0119" unicode="&#x0119;" d="M778 250L245 250Q252 187 292.50 146.50Q333 106 403 106Q460 106 504.50 133.50Q549 161 549 218L778 218Q778 102 679.50 41.50Q581-19 405-20Q394-35 394-65Q394-98 410.50-116Q427-134 480-134L480-177Q412-179 372.50-168.50Q333-158 315.50-133.50Q298-109 298-65Q298-35 307-12Q221 3 154 42.50Q87 82 49 142Q11 202 11 276Q11 364 62.50 431.50Q114 499 203.50 535.50Q293 572 402 572Q514 572 598.50 536Q683 500 730 434.50Q777 369 778 281L778 276L780 276L778 276L778 250M402 450Q336 450 301 422Q266 394 253 344L543 344Q532 394 499 422Q466 450 402 450Z"  horiz-adv-x="791" vert-adv-y="1000"  />

      
      <glyph glyph-name="uni011A" unicode="&#x011A;" d="M750 288L288 288L288 175L834 179L834 0L41 0L41 740L834 740L835 561L288 561L288 463L750 463L750 288M426 849L507 910L716 910L536 774L310 774L140 910L349 910L426 849Z"  horiz-adv-x="861" vert-adv-y="1000"  />

      
      <glyph glyph-name="uni011B" unicode="&#x011B;" d="M778 250L245 250Q252 187 292.50 146.50Q333 106 403 106Q460 106 504.50 133.50Q549 161 549 218L778 218Q778 102 678.50 41Q579-20 402-20Q293-20 204 17Q115 54 63 121.50Q11 189 11 276Q11 364 62.50 431.50Q114 499 203.50 535.50Q293 572 402 572Q514 572 598.50 536Q683 500 730 434.50Q777 369 778 281L778 276L780 276L778 276L778 250M402 450Q336 450 301 422Q266 394 253 344L543 344Q532 394 499 422Q466 450 402 450M400 680L481 741L690 741L510 605L284 605L114 741L323 741L400 680Z"  horiz-adv-x="791" vert-adv-y="1000"  />

      
      <glyph glyph-name="uni011E" unicode="&#x011E;" d="M990 0L835 0L816 57Q690-20 516-20Q378-20 265 31Q152 82 86.50 171Q21 260 21 369Q21 480 87 569Q153 658 266 708.50Q379 759 516 759Q639 759 739 724Q839 689 904 621.50Q969 554 988 459L731 458Q711 516 651.50 543Q592 570 517 570Q455 570 404 545.50Q353 521 323.50 475.50Q294 430 294 369Q294 307 324 261.50Q354 216 405 192.50Q456 169 517 169Q578 169 631 192Q684 215 714 259L520 259L520 391L989 391L989 304L990 0M756 991Q756 892 687.50 842Q619 792 510 792Q399 792 330 842Q261 892 261 991L398 991Q398 945 430 913.50Q462 882 509 882Q555 882 587.50 913.50Q620 945 620 991L756 991Z"  horiz-adv-x="1012" vert-adv-y="1000"  />

      
      <glyph glyph-name="uni011F" unicode="&#x011F;" d="M765 545L765 0Q761-79 702.50-126.50Q644-174 564.50-193.50Q485-213 411-213Q301-213 229-205.50Q157-198 98.50-160Q40-122 40-39L274-39Q274-68 299.50-80.50Q325-93 344.50-94Q364-95 411-95Q456-95 495.50-72.50Q535-50 535 10L535 58Q452-18 278-18Q202-18 142 21.50Q82 61 47.50 125Q13 189 11 260L11 264L11 267Q12 349 46 415Q80 481 140.50 519Q201 557 278 557Q457 562 541 480L554 545L765 545M393 118Q457 118 496 158.50Q535 199 535 274L535 277Q535 315 517 349Q499 383 467 403Q435 423 396 423Q324 423 285 379.50Q246 336 244 266Q246 202 284.50 160Q323 118 393 118M638 783Q638 684 569.50 634Q501 584 392 584Q281 584 212 634Q143 684 143 783L280 783Q280 737 312 705.50Q344 674 391 674Q437 674 469.50 705.50Q502 737 502 783L638 783Z"  horiz-adv-x="794" vert-adv-y="1000"  />

      
      <glyph glyph-name="uni0120" unicode="&#x0120;" d="M990 0L835 0L816 57Q690-20 516-20Q378-20 265 31Q152 82 86.50 171Q21 260 21 369Q21 480 87 569Q153 658 266 708.50Q379 759 516 759Q639 759 739 724Q839 689 904 621.50Q969 554 988 459L731 458Q711 516 651.50 543Q592 570 517 570Q455 570 404 545.50Q353 521 323.50 475.50Q294 430 294 369Q294 307 324 261.50Q354 216 405 192.50Q456 169 517 169Q578 169 631 192Q684 215 714 259L520 259L520 391L989 391L989 304L990 0M508 783Q468 783 440.50 810.50Q413 838 413 878Q413 917 440.50 944Q468 971 508 971Q547 971 574.50 944Q602 917 602 878Q602 838 574.50 810.50Q547 783 508 783Z"  horiz-adv-x="1012" vert-adv-y="1000"  />

      
      <glyph glyph-name="uni0121" unicode="&#x0121;" d="M765 545L765 0Q761-79 702.50-126.50Q644-174 564.50-193.50Q485-213 411-213Q301-213 229-205.50Q157-198 98.50-160Q40-122 40-39L274-39Q274-68 299.50-80.50Q325-93 344.50-94Q364-95 411-95Q456-95 495.50-72.50Q535-50 535 10L535 58Q452-18 278-18Q202-18 142 21.50Q82 61 47.50 125Q13 189 11 260L11 264L11 267Q12 349 46 415Q80 481 140.50 519Q201 557 278 557Q457 562 541 480L554 545L765 545M393 118Q457 118 496 158.50Q535 199 535 274L535 277Q535 315 517 349Q499 383 467 403Q435 423 396 423Q324 423 285 379.50Q246 336 244 266Q246 202 284.50 160Q323 118 393 118M384 585Q344 585 316.50 612.50Q289 640 289 680Q289 719 316.50 746Q344 773 384 773Q423 773 450.50 746Q478 719 478 680Q478 640 450.50 612.50Q423 585 384 585Z"  horiz-adv-x="794" vert-adv-y="1000"  />

      
      <glyph glyph-name="uni0122" unicode="&#x0122;" d="M990 0L835 0L816 57Q690-20 516-20Q378-20 265 31Q152 82 86.50 171Q21 260 21 369Q21 480 87 569Q153 658 266 708.50Q379 759 516 759Q639 759 739 724Q839 689 904 621.50Q969 554 988 459L731 458Q711 516 651.50 543Q592 570 517 570Q455 570 404 545.50Q353 521 323.50 475.50Q294 430 294 369Q294 307 324 261.50Q354 216 405 192.50Q456 169 517 169Q578 169 631 192Q684 215 714 259L520 259L520 391L989 391L989 304L990 0M443-50L605-50L605-174Q603-214 579.50-240Q556-266 509-266L442-266L442-218L461-218Q478-218 482-210Q486-202 486-184L486-174L443-174L443-50Z"  horiz-adv-x="1012" vert-adv-y="1000"  />

      
      <glyph glyph-name="uni0123" unicode="&#x0123;" d="M765 545L765 0Q761-79 702.50-126.50Q644-174 564.50-193.50Q485-213 411-213Q301-213 229-205.50Q157-198 98.50-160Q40-122 40-39L274-39Q274-68 299.50-80.50Q325-93 344.50-94Q364-95 411-95Q456-95 495.50-72.50Q535-50 535 10L535 58Q452-18 278-18Q202-18 142 21.50Q82 61 47.50 125Q13 189 11 260L11 264L11 267Q12 349 46 415Q80 481 140.50 519Q201 557 278 557Q457 562 541 480L554 545L765 545M393 118Q457 118 496 158.50Q535 199 535 274L535 277Q535 315 517 349Q499 383 467 403Q435 423 396 423Q324 423 285 379.50Q246 336 244 266Q246 202 284.50 160Q323 118 393 118M418 715L461 715L461 591L299 591L299 715Q301 755 324.50 781Q348 807 395 807L462 807L462 759L443 759Q426 759 422 751Q418 743 418 725L418 715Z"  horiz-adv-x="794" vert-adv-y="1000"  />

      
      <glyph glyph-name="uni0126" unicode="&#x0126;" d="M1003 660L1084 660L1084 539L1003 539L1003 0L757 0L757 283L362 283L362 0L115 0L115 539L33 539L33 660L115 660L115 740L362 740L362 660L757 660L757 740L1003 740L1003 660M362 477L757 477L757 539L362 539L362 477Z"  horiz-adv-x="1104" vert-adv-y="1000"  />

      
      <glyph glyph-name="uni0127" unicode="&#x0127;" d="M544 563Q662 563 732.50 483Q803 403 803 225L803 0L573 0L573 222Q573 286 566.50 326Q560 366 533 392.50Q506 419 449 419Q389 419 359.50 391.50Q330 364 322.50 324Q315 284 315 223L315 0L85 0L85 574L11 574L11 691L85 691L85 740L315 740L315 691L455 691L455 574L315 574L315 479Q391 563 544 563Z"  horiz-adv-x="825" vert-adv-y="1000"  />

      
      <glyph glyph-name="uni012A" unicode="&#x012A;" d="M288 0L41 0L41 740L288 740L288 0M-50 774L-50 906L387 906L387 774L-50 774Z"  horiz-adv-x="329" vert-adv-y="1000"  />

      
      <glyph glyph-name="uni012B" unicode="&#x012B;" d="M21 610L21 743L458 743L458 610L21 610M359 0L129 0L129 560L359 560L359 0Z"  horiz-adv-x="480" vert-adv-y="1000"  />

      
      <glyph glyph-name="uni012E" unicode="&#x012E;" d="M41 740L288 740L288 0L286 0Q233 0 216.50-18Q200-36 200-69Q200-102 216.50-120Q233-138 286-138L286-181Q218-183 178.50-172.50Q139-162 121.50-137.50Q104-113 104-69Q104-24 122 0L41 0L41 740Z"  horiz-adv-x="329" vert-adv-y="1000"  />

      
      <glyph glyph-name="uni012F" unicode="&#x012F;" d="M26 589L26 740L256 740L256 589L26 589M26 0L26 560L256 560L256 0L250 0Q197 0 180.50-18Q164-36 164-69Q164-102 180.50-120Q197-138 250-138L250-181Q182-183 142.50-172.50Q103-162 85.50-137.50Q68-113 68-69Q68-24 86 0L26 0Z"  horiz-adv-x="283" vert-adv-y="1000"  />

      
      <glyph glyph-name="uni0130" unicode="&#x0130;" d="M288 0L41 0L41 740L288 740L288 0M158 783Q118 783 90.50 810.50Q63 838 63 878Q63 917 90.50 944Q118 971 158 971Q197 971 224.50 944Q252 917 252 878Q252 838 224.50 810.50Q197 783 158 783Z"  horiz-adv-x="329" vert-adv-y="1000"  />

      
      <glyph glyph-name="uni0131" unicode="&#x0131;" d="M256 0L26 0L26 560L256 560L256 0Z"  horiz-adv-x="283" vert-adv-y="1000"  />

      
      <glyph glyph-name="uni0136" unicode="&#x0136;" d="M488 401L891 0L588 0L288 310L288 0L41 0L41 740L288 740L288 483L570 740L876 740L488 401M357-33L519-33L519-157Q517-197 493.50-223Q470-249 423-249L356-249L356-201L375-201Q392-201 396-193Q400-185 400-167L400-157L357-157L357-33Z"  horiz-adv-x="872" vert-adv-y="1000"  />

      
      <glyph glyph-name="uni0137" unicode="&#x0137;" d="M478 301L751 0L488 0L254 252L254 0L24 0L24 740L254 740L254 348L453 545L720 545L478 301M304-36L466-36L466-160Q464-200 440.50-226Q417-252 370-252L303-252L303-204L322-204Q339-204 343-196Q347-188 347-170L347-160L304-160L304-36Z"  horiz-adv-x="741" vert-adv-y="1000"  />

      
      <glyph glyph-name="uni0139" unicode="&#x0139;" d="M288 740L288 190L754 190L754 0L41 0L41 740L288 740M74 773L144 906L368 906L248 773L74 773Z"  horiz-adv-x="780" vert-adv-y="1000"  />

      
      <glyph glyph-name="uni013A" unicode="&#x013A;" d="M256 0L26 0L26 740L256 740L256 0M51 777L121 910L345 910L225 777L51 777Z"  horiz-adv-x="286" vert-adv-y="1000"  />

      
      <glyph glyph-name="uni013B" unicode="&#x013B;" d="M288 740L288 190L754 190L754 0L41 0L41 740L288 740M298-34L460-34L460-158Q458-198 434.50-224Q411-250 364-250L297-250L297-202L316-202Q333-202 337-194Q341-186 341-168L341-158L298-158L298-34Z"  horiz-adv-x="780" vert-adv-y="1000"  />

      
      <glyph glyph-name="uni013C" unicode="&#x013C;" d="M256 0L26 0L26 740L256 740L256 0M61-36L223-36L223-160Q221-200 197.50-226Q174-252 127-252L60-252L60-204L79-204Q96-204 100-196Q104-188 104-170L104-160L61-160L61-36Z"  horiz-adv-x="286" vert-adv-y="1000"  />

      
      <glyph glyph-name="uni013D" unicode="&#x013D;" d="M288 740L288 190L754 190L754 0L41 0L41 740L288 740M167 849L248 910L457 910L277 774L51 774L-119 910L90 910L167 849Z"  horiz-adv-x="780" vert-adv-y="1000"  />

      
      <glyph glyph-name="uni013E" unicode="&#x013E;" d="M256 0L26 0L26 740L256 740L256 0M145 849L226 910L435 910L255 774L29 774L-141 910L68 910L145 849Z"  horiz-adv-x="286" vert-adv-y="1000"  />

      
      <glyph glyph-name="uni0141" unicode="&#x0141;" d="M330 354L330 190L796 190L796 0L84 0L84 236L8 200L8 343L84 380L84 740L330 740L330 498L451 556L451 412L330 354Z"  horiz-adv-x="809" vert-adv-y="1000"  />

      
      <glyph glyph-name="uni0142" unicode="&#x0142;" d="M331 519L423 563L423 419L331 375L331 0L101 0L101 265L11 222L11 365L101 408L101 740L331 740L331 519Z"  horiz-adv-x="435" vert-adv-y="1000"  />

      
      <glyph glyph-name="uni0143" unicode="&#x0143;" d="M288 0L41 0L41 740L288 0M986 0L740 0L986 0M740 287L740 740L986 740L986 0L740 0L288 453L288 0L41 0L41 740L288 740L740 287M407 777L477 910L701 910L581 777L407 777Z"  horiz-adv-x="1028" vert-adv-y="1000"  />

      
      <glyph glyph-name="uni0144" unicode="&#x0144;" d="M487 563Q610 563 677.50 484Q745 405 745 225L745 0L515 0L515 222Q515 285 508 325Q501 365 474 392Q447 419 390 419Q330 419 301 393.50Q272 368 264 328Q256 288 256 223L256 0L26 0L26 545L256 545L256 477Q332 563 487 563M294 592L364 725L588 725L468 592L294 592Z"  horiz-adv-x="766" vert-adv-y="1000"  />

      
      <glyph glyph-name="uni0145" unicode="&#x0145;" d="M288 0L41 0L41 740L288 0M986 0L740 0L986 0M740 287L740 740L986 740L986 0L740 0L288 453L288 0L41 0L41 740L288 740L740 287M429-34L591-34L591-158Q589-198 565.50-224Q542-250 495-250L428-250L428-202L447-202Q464-202 468-194Q472-186 472-168L472-158L429-158L429-34Z"  horiz-adv-x="1028" vert-adv-y="1000"  />

      
      <glyph glyph-name="uni0146" unicode="&#x0146;" d="M487 563Q610 563 677.50 484Q745 405 745 225L745 0L515 0L515 222Q515 285 508 325Q501 365 474 392Q447 419 390 419Q330 419 301 393.50Q272 368 264 328Q256 288 256 223L256 0L26 0L26 545L256 545L256 477Q332 563 487 563M308-36L470-36L470-160Q468-200 444.50-226Q421-252 374-252L307-252L307-204L326-204Q343-204 347-196Q351-188 351-170L351-160L308-160L308-36Z"  horiz-adv-x="766" vert-adv-y="1000"  />

      
      <glyph glyph-name="uni0147" unicode="&#x0147;" d="M288 0L41 0L41 740L288 0M986 0L740 0L986 0M740 287L740 740L986 740L986 0L740 0L288 453L288 0L41 0L41 740L288 740L740 287M515 849L596 910L805 910L625 774L399 774L229 910L438 910L515 849Z"  horiz-adv-x="1028" vert-adv-y="1000"  />

      
      <glyph glyph-name="uni0148" unicode="&#x0148;" d="M487 563Q610 563 677.50 484Q745 405 745 225L745 0L515 0L515 222Q515 285 508 325Q501 365 474 392Q447 419 390 419Q330 419 301 393.50Q272 368 264 328Q256 288 256 223L256 0L26 0L26 545L256 545L256 477Q332 563 487 563M385 670L466 731L675 731L495 595L269 595L99 731L308 731L385 670Z"  horiz-adv-x="766" vert-adv-y="1000"  />

      
      <glyph glyph-name="uni014A" unicode="&#x014A;" d="M288 0L41 0L41 740L288 0M986 0L740 0L986 0M986 134L987 134L987-5Q987-108 945.50-165Q904-222 814-246Q724-270 567-270L567-89Q633-89 687-71Q741-53 740 0L288 453L288 0L41 0L41 740L288 740L740 287L740 740L986 740L986 134Z"  horiz-adv-x="1028" vert-adv-y="1000"  />

      
      <glyph glyph-name="uni014B" unicode="&#x014B;" d="M486 563Q609 563 676.50 484Q744 405 744 225L744-4Q744-108 701-164.50Q658-221 570.50-243Q483-265 333-265L333-101Q401-101 437-95.50Q473-90 493.50-68Q514-46 514 0L514 222Q514 285 507 325Q500 365 473 392Q446 419 389 419Q328 419 299 393.50Q270 368 262.50 328.50Q255 289 255 223L255 0L25 0L25 545L255 545L255 477Q331 563 486 563Z"  horiz-adv-x="765" vert-adv-y="1000"  />

      
      <glyph glyph-name="uni014C" unicode="&#x014C;" d="M506 756Q643 756 753.50 705.50Q864 655 926.50 566.50Q989 478 989 367Q989 257 926.50 169Q864 81 754 30.50Q644-20 507-20Q375-20 263 30.50Q151 81 85.50 169.50Q20 258 20 367Q20 477 85.50 566Q151 655 262.50 705.50Q374 756 506 756M507 167Q563 167 614.50 191Q666 215 698 260Q730 305 730 367Q730 429 697.50 474.50Q665 520 613 543.50Q561 567 505 567Q448 567 397 543Q346 519 314.50 473.50Q283 428 283 367Q283 305 315 260Q347 215 398.50 191Q450 167 507 167M283 792L283 924L720 924L720 792L283 792Z"  horiz-adv-x="1009" vert-adv-y="1000"  />

      
      <glyph glyph-name="uni014D" unicode="&#x014D;" d="M406 568Q514 568 601 530Q688 492 737 424.50Q786 357 786 273Q786 190 736.50 122.50Q687 55 600.50 17Q514-21 406-21Q302-21 211 17.50Q120 56 65.50 123.50Q11 191 11 273Q11 356 65.50 423.50Q120 491 210.50 529.50Q301 568 406 568M406 122Q446 122 480.50 139Q515 156 536 190.50Q557 225 557 273Q557 321 536 355.50Q515 390 480.50 407Q446 424 406 424Q367 424 329.50 406.50Q292 389 268 355Q244 321 244 273Q244 225 268 191Q292 157 329.50 139.50Q367 122 406 122M188 603L188 735L625 735L625 603L188 603Z"  horiz-adv-x="797" vert-adv-y="1000"  />

      
      <glyph glyph-name="uni0150" unicode="&#x0150;" d="M506 756Q643 756 753.50 705.50Q864 655 926.50 566.50Q989 478 989 367Q989 257 926.50 169Q864 81 754 30.50Q644-20 507-20Q375-20 263 30.50Q151 81 85.50 169.50Q20 258 20 367Q20 477 85.50 566Q151 655 262.50 705.50Q374 756 506 756M507 167Q563 167 614.50 191Q666 215 698 260Q730 305 730 367Q730 429 697.50 474.50Q665 520 613 543.50Q561 567 505 567Q448 567 397 543Q346 519 314.50 473.50Q283 428 283 367Q283 305 315 260Q347 215 398.50 191Q450 167 507 167M329 790L399 923L539 923L469 790L329 790M530 790L600 923L740 923L670 790L530 790Z"  horiz-adv-x="1009" vert-adv-y="1000"  />

      
      </font>
</defs>
</svg>
